  0
SECTION
  2
HEADER
  9
$ACADVER
  1
AC1014
  9
$ACADMAINTVER
 70
     9
  9
$DWGCODEPAGE
  3
ANSI_932
  9
$INSBASE
 10
0.0
 20
0.0
 30
0.0
  9
$EXTMIN
 10
-353.2254037272122
 20
-260.1138811211324
 30
0.0
  9
$EXTMAX
 10
318.1877859475479
 20
262.9332355608067
 30
0.0
  9
$LIMMIN
 10
-148.625
 20
-105.125
  9
$LIMMAX
 10
148.625
 20
105.125
  9
$ORTHOMODE
 70
     0
  9
$REGENMODE
 70
     1
  9
$FILLMODE
 70
     1
  9
$QTEXTMODE
 70
     0
  9
$MIRRTEXT
 70
     1
  9
$DRAGMODE
 70
     2
  9
$LTSCALE
 40
0.0625
  9
$OSMODE
 70
    37
  9
$ATTMODE
 70
     1
  9
$TEXTSIZE
 40
0.2
  9
$TRACEWID
 40
0.05
  9
$TEXTSTYLE
  7
STANDARD
  9
$CLAYER
  8
0
  9
$CELTYPE
  6
BYLAYER
  9
$CECOLOR
 62
   256
  9
$CELTSCALE
 40
1.0
  9
$DELOBJ
 70
     1
  9
$DISPSILH
 70
     0
  9
$DIMSCALE
 40
1.0
  9
$DIMASZ
 40
0.5000268816947937
  9
$DIMEXO
 40
1.0
  9
$DIMDLI
 40
10.0
  9
$DIMRND
 40
0.0
  9
$DIMDLE
 40
0.0
  9
$DIMEXE
 40
1.0
  9
$DIMTP
 40
0.0
  9
$DIMTM
 40
0.0
  9
$DIMTXT
 40
0.875
  9
$DIMCEN
 40
0.0
  9
$DIMTSZ
 40
0.0
  9
$DIMTOL
 70
     0
  9
$DIMLIM
 70
     0
  9
$DIMTIH
 70
     0
  9
$DIMTOH
 70
     0
  9
$DIMSE1
 70
     0
  9
$DIMSE2
 70
     0
  9
$DIMTAD
 70
     1
  9
$DIMZIN
 70
     8
  9
$DIMBLK
  1

  9
$DIMASO
 70
     1
  9
$DIMSHO
 70
     1
  9
$DIMPOST
  1

  9
$DIMAPOST
  1

  9
$DIMALT
 70
     0
  9
$DIMALTD
 70
     2
  9
$DIMALTF
 40
0.0393700787401575
  9
$DIMLFAC
 40
1.0
  9
$DIMTOFL
 70
     0
  9
$DIMTVP
 40
0.0
  9
$DIMTIX
 70
     0
  9
$DIMSOXD
 70
     0
  9
$DIMSAH
 70
     0
  9
$DIMBLK1
  1

  9
$DIMBLK2
  1

  9
$DIMSTYLE
  2
STANDARD
  9
$DIMCLRD
 70
     0
  9
$DIMCLRE
 70
     0
  9
$DIMCLRT
 70
     0
  9
$DIMTFAC
 40
0.65
  9
$DIMGAP
 40
0.09
  9
$DIMJUST
 70
     0
  9
$DIMSD1
 70
     0
  9
$DIMSD2
 70
     0
  9
$DIMTOLJ
 70
     0
  9
$DIMTZIN
 70
     0
  9
$DIMALTZ
 70
     0
  9
$DIMALTTZ
 70
     0
  9
$DIMFIT
 70
     3
  9
$DIMUPT
 70
     0
  9
$DIMUNIT
 70
     2
  9
$DIMDEC
 70
     3
  9
$DIMTDEC
 70
     3
  9
$DIMALTU
 70
     2
  9
$DIMALTTD
 70
     3
  9
$DIMTXSTY
  7
STANDARD
  9
$DIMAUNIT
 70
     0
  9
$LUNITS
 70
     2
  9
$LUPREC
 70
     4
  9
$SKETCHINC
 40
0.1
  9
$FILLETRAD
 40
0.5
  9
$AUNITS
 70
     0
  9
$AUPREC
 70
     0
  9
$MENU
  1
.
  9
$ELEVATION
 40
0.0
  9
$PELEVATION
 40
0.0
  9
$THICKNESS
 40
0.0
  9
$LIMCHECK
 70
     0
  9
$CHAMFERA
 40
0.0
  9
$CHAMFERB
 40
0.0
  9
$CHAMFERC
 40
0.0
  9
$CHAMFERD
 40
0.0
  9
$SKPOLY
 70
     0
  9
$TDCREATE
 40
2458464.434366366
  9
$TDUPDATE
 40
2458464.434366736
  9
$TDINDWG
 40
0.0000000116
  9
$TDUSRTIMER
 40
0.0000000116
  9
$USRTIMER
 70
     1
  9
$ANGBASE
 50
0.0
  9
$ANGDIR
 70
     0
  9
$PDMODE
 70
     0
  9
$PDSIZE
 40
1.0
  9
$PLINEWID
 40
0.0
  9
$COORDS
 70
     1
  9
$SPLFRAME
 70
     0
  9
$SPLINETYPE
 70
     6
  9
$SPLINESEGS
 70
     8
  9
$ATTDIA
 70
     0
  9
$ATTREQ
 70
     1
  9
$HANDLING
 70
     1
  9
$HANDSEED
  5
243
  9
$SURFTAB1
 70
     6
  9
$SURFTAB2
 70
     6
  9
$SURFTYPE
 70
     6
  9
$SURFU
 70
     6
  9
$SURFV
 70
     6
  9
$UCSNAME
  2

  9
$UCSORG
 10
0.0
 20
0.0
 30
0.0
  9
$UCSXDIR
 10
1.0
 20
0.0
 30
0.0
  9
$UCSYDIR
 10
0.0
 20
1.0
 30
0.0
  9
$PUCSNAME
  2

  9
$PUCSORG
 10
0.0
 20
0.0
 30
0.0
  9
$PUCSXDIR
 10
1.0
 20
0.0
 30
0.0
  9
$PUCSYDIR
 10
0.0
 20
1.0
 30
0.0
  9
$USERI1
 70
     0
  9
$USERI2
 70
     0
  9
$USERI3
 70
     0
  9
$USERI4
 70
     0
  9
$USERI5
 70
     0
  9
$USERR1
 40
0.0
  9
$USERR2
 40
0.0
  9
$USERR3
 40
0.0
  9
$USERR4
 40
0.0
  9
$USERR5
 40
0.0
  9
$WORLDVIEW
 70
     1
  9
$SHADEDGE
 70
     3
  9
$SHADEDIF
 70
    70
  9
$TILEMODE
 70
     1
  9
$MAXACTVP
 70
    64
  9
$PINSBASE
 10
0.0
 20
0.0
 30
0.0
  9
$PLIMCHECK
 70
     0
  9
$PEXTMIN
 10
1.000000000000000E+20
 20
1.000000000000000E+20
 30
1.000000000000000E+20
  9
$PEXTMAX
 10
-1.000000000000000E+20
 20
-1.000000000000000E+20
 30
-1.000000000000000E+20
  9
$PLIMMIN
 10
0.0
 20
0.0
  9
$PLIMMAX
 10
12.0
 20
9.0
  9
$UNITMODE
 70
     0
  9
$VISRETAIN
 70
     0
  9
$PLINEGEN
 70
     1
  9
$PSLTSCALE
 70
     0
  9
$TREEDEPTH
 70
  3020
  9
$PICKSTYLE
 70
     1
  9
$CMLSTYLE
  2
STANDARD
  9
$CMLJUST
 70
     0
  9
$CMLSCALE
 40
1.0
  9
$PROXYGRAPHICS
 70
     0
  9
$MEASUREMENT
 70
     1
  0
ENDSEC
  0
SECTION
  2
CLASSES
  0
CLASS
  1
ACDBDICTIONARYWDFLT
  2
AcDbDictionaryWithDefault
  3
ObjectDBX Classes
 90
        0
280
     0
281
     0
  0
CLASS
  1
VISUALSTYLE
  2
AcDbVisualStyle
  3
ObjectDBX Classes
 90
     4095
280
     0
281
     0
  0
CLASS
  1
MATERIAL
  2
AcDbMaterial
  3
ObjectDBX Classes
 90
     1153
280
     0
281
     0
  0
CLASS
  1
SCALE
  2
AcDbScale
  3
ObjectDBX Classes
 90
     1153
280
     0
281
     0
  0
CLASS
  1
TABLESTYLE
  2
AcDbTableStyle
  3
ObjectDBX Classes
 90
     4095
280
     0
281
     0
  0
CLASS
  1
MLEADERSTYLE
  2
AcDbMLeaderStyle
  3
ACDB_MLEADERSTYLE_CLASS
 90
     4095
280
     0
281
     0
  0
CLASS
  1
SUN
  2
AcDbSun
  3
SCENEOE
 90
     1153
280
     0
281
     0
  0
CLASS
  1
DICTIONARYVAR
  2
AcDbDictionaryVar
  3
ObjectDBX Classes
 90
        0
280
     0
281
     0
  0
CLASS
  1
XRECORD
  2
AcDbXrecord
  3
ObjectDBX Classes
 90
        0
280
     0
281
     0
  0
CLASS
  1
LWPOLYLINE
  2
AcDbPolyline
  3
ObjectDBX Classes
 90
        0
280
     0
281
     1
  0
CLASS
  1
HATCH
  2
AcDbHatch
  3
ObjectDBX Classes
 90
        0
280
     0
281
     1
  0
CLASS
  1
ACDBPLACEHOLDER
  2
AcDbPlaceHolder
  3
ObjectDBX Classes
 90
        0
280
     0
281
     0
  0
CLASS
  1
LAYOUT
  2
AcDbLayout
  3
ObjectDBX Classes
 90
        0
280
     0
281
     0
  0
ENDSEC
  0
SECTION
  2
TABLES
  0
TABLE
  2
VPORT
  5
8
102
{ACAD_XDICTIONARY
360
238
102
}
330
0
100
AcDbSymbolTable
 70
     1
  0
VPORT
  5
29
330
8
100
AcDbSymbolTableRecord
100
AcDbViewportTableRecord
  2
*ACTIVE
 70
     0
 10
0.0
 20
0.0
 11
1.0
 21
1.0
 12
-14.36880888983203
 22
-5.023337340773651
 13
0.0
 23
0.0
 14
0.5
 24
0.5
 15
0.5
 25
0.5
 16
0.0
 26
0.0
 36
1.0
 17
0.0
 27
0.0
 37
0.0
 40
170.4641530251489
 41
1.376867102696902
 42
50.0
 43
0.0
 44
0.0
 50
0.0
 51
0.0
 71
     0
 72
  1000
 73
     1
 74
     1
 75
     0
 76
     0
 77
     0
 78
     0
  0
ENDTAB
  0
TABLE
  2
LTYPE
  5
5
330
0
100
AcDbSymbolTable
 70
    67
  0
LTYPE
  5
14
330
5
100
AcDbSymbolTableRecord
100
AcDbLinetypeTableRecord
  2
BYBLOCK
 70
     0
  3

 72
    65
 73
     0
 40
0.0
  0
LTYPE
  5
15
330
5
100
AcDbSymbolTableRecord
100
AcDbLinetypeTableRecord
  2
BYLAYER
 70
     0
  3

 72
    65
 73
     0
 40
0.0
  0
LTYPE
  5
16
330
5
100
AcDbSymbolTableRecord
100
AcDbLinetypeTableRecord
  2
CONTINUOUS
 70
     0
  3
Solid line
 72
    65
 73
     0
 40
0.0
  0
LTYPE
  5
6F
330
5
100
AcDbSymbolTableRecord
100
AcDbLinetypeTableRecord
  2
HIDDENX2
 70
     0
  3
Hidden (2x) ____ ____ ____ ____ ____ ____ ____ 
 72
    65
 73
     2
 40
19.05
 49
12.7
 74
     0
 49
-6.35
 74
     0
  0
LTYPE
  5
70
330
5
100
AcDbSymbolTableRecord
100
AcDbLinetypeTableRecord
  2
HIDDEN
 70
     0
  3
Hidden __ __ __ __ __ __ __ __ __ __ __ __ __ __
 72
    65
 73
     2
 40
9.524999999999999
 49
6.35
 74
     0
 49
-3.175
 74
     0
  0
LTYPE
  5
71
330
5
100
AcDbSymbolTableRecord
100
AcDbLinetypeTableRecord
  2
HIDDEN2
 70
     0
  3
Hidden (.5x) _ _ _ _ _ _ _ _ _ _ _ _ _ _ _ _ _ 
 72
    65
 73
     2
 40
4.762499999999999
 49
3.175
 74
     0
 49
-1.5875
 74
     0
  0
LTYPE
  5
72
330
5
100
AcDbSymbolTableRecord
100
AcDbLinetypeTableRecord
  2
DASHED
 70
     0
  3
Dashed __ __ __ __ __ __ __ __ __ __ __ __ __ _
 72
    65
 73
     2
 40
19.05
 49
12.7
 74
     0
 49
-6.35
 74
     0
  0
LTYPE
  5
73
330
5
100
AcDbSymbolTableRecord
100
AcDbLinetypeTableRecord
  2
DASHED2
 70
     0
  3
Dashed (.5x) _ _ _ _ _ _ _ _ _ _ _ _ _ _ _ _ _ 
 72
    65
 73
     2
 40
9.524999999999999
 49
6.35
 74
     0
 49
-3.175
 74
     0
  0
LTYPE
  5
74
330
5
100
AcDbSymbolTableRecord
100
AcDbLinetypeTableRecord
  2
DASHEDX2
 70
     0
  3
Dashed (2x) ____  ____  ____  ____  ____  ___
 72
    65
 73
     2
 40
38.09999999999999
 49
25.4
 74
     0
 49
-12.7
 74
     0
  0
LTYPE
  5
75
330
5
100
AcDbSymbolTableRecord
100
AcDbLinetypeTableRecord
  2
DOTX2
 70
     0
  3
Dot (2x) .  .  .  .  .  .  .  .  .  .  .  .  .  .
 72
    65
 73
     2
 40
12.7
 49
0.0
 74
     0
 49
-12.7
 74
     0
  0
LTYPE
  5
76
330
5
100
AcDbSymbolTableRecord
100
AcDbLinetypeTableRecord
  2
DOT
 70
     0
  3
Dot . . . . . . . . . . . . . . . . . . . . . . . .
 72
    65
 73
     2
 40
6.35
 49
0.0
 74
     0
 49
-6.35
 74
     0
  0
LTYPE
  5
77
330
5
100
AcDbSymbolTableRecord
100
AcDbLinetypeTableRecord
  2
DOT2
 70
     0
  3
Dot (.5x) ........................................
 72
    65
 73
     2
 40
3.175
 49
0.0
 74
     0
 49
-3.175
 74
     0
  0
LTYPE
  5
78
330
5
100
AcDbSymbolTableRecord
100
AcDbLinetypeTableRecord
  2
CENTERX2
 70
     0
  3
Center (2x) ________  __  ________  __  _____
 72
    65
 73
     4
 40
101.6
 49
63.5
 74
     0
 49
-12.7
 74
     0
 49
12.7
 74
     0
 49
-12.7
 74
     0
  0
LTYPE
  5
79
330
5
100
AcDbSymbolTableRecord
100
AcDbLinetypeTableRecord
  2
CENTER
 70
     0
  3
Center ____ _ ____ _ ____ _ ____ _ ____ _ ____
 72
    65
 73
     4
 40
50.8
 49
31.75
 74
     0
 49
-6.35
 74
     0
 49
6.35
 74
     0
 49
-6.35
 74
     0
  0
LTYPE
  5
7A
330
5
100
AcDbSymbolTableRecord
100
AcDbLinetypeTableRecord
  2
CENTER2
 70
     0
  3
Center (.5x) ___ _ ___ _ ___ _ ___ _ ___ _ ___
 72
    65
 73
     4
 40
28.575
 49
19.05
 74
     0
 49
-3.175
 74
     0
 49
3.175
 74
     0
 49
-3.175
 74
     0
  0
LTYPE
  5
7B
330
5
100
AcDbSymbolTableRecord
100
AcDbLinetypeTableRecord
  2
DASHDOTX2
 70
     0
  3
Dash dot (2x) ____  .  ____  .  ____  .  ___
 72
    65
 73
     4
 40
50.8
 49
25.4
 74
     0
 49
-12.7
 74
     0
 49
0.0
 74
     0
 49
-12.7
 74
     0
  0
LTYPE
  5
7C
330
5
100
AcDbSymbolTableRecord
100
AcDbLinetypeTableRecord
  2
DASHDOT
 70
     0
  3
Dash dot __ . __ . __ . __ . __ . __ . __ . __
 72
    65
 73
     4
 40
25.4
 49
12.7
 74
     0
 49
-6.35
 74
     0
 49
0.0
 74
     0
 49
-6.35
 74
     0
  0
LTYPE
  5
7D
330
5
100
AcDbSymbolTableRecord
100
AcDbLinetypeTableRecord
  2
DASHDOT2
 70
     0
  3
Dash dot (.5x) _._._._._._._._._._._._._._._.
 72
    65
 73
     4
 40
12.7
 49
6.35
 74
     0
 49
-3.175
 74
     0
 49
0.0
 74
     0
 49
-3.175
 74
     0
  0
LTYPE
  5
7E
330
5
100
AcDbSymbolTableRecord
100
AcDbLinetypeTableRecord
  2
DIVIDEX2
 70
     0
  3
Divide (2x) ________  .  .  ________  .  .  _
 72
    65
 73
     6
 40
63.5
 49
25.4
 74
     0
 49
-12.7
 74
     0
 49
0.0
 74
     0
 49
-12.7
 74
     0
 49
0.0
 74
     0
 49
-12.7
 74
     0
  0
LTYPE
  5
7F
330
5
100
AcDbSymbolTableRecord
100
AcDbLinetypeTableRecord
  2
DIVIDE
 70
     0
  3
Divide ____ . . ____ . . ____ . . ____ . . ____
 72
    65
 73
     6
 40
31.75
 49
12.7
 74
     0
 49
-6.35
 74
     0
 49
0.0
 74
     0
 49
-6.35
 74
     0
 49
0.0
 74
     0
 49
-6.35
 74
     0
  0
LTYPE
  5
80
330
5
100
AcDbSymbolTableRecord
100
AcDbLinetypeTableRecord
  2
DIVIDE2
 70
     0
  3
Divide (.5x) __..__..__..__..__..__..__..__.._
 72
    65
 73
     6
 40
15.875
 49
6.35
 74
     0
 49
-3.175
 74
     0
 49
0.0
 74
     0
 49
-3.175
 74
     0
 49
0.0
 74
     0
 49
-3.175
 74
     0
  0
LTYPE
  5
81
330
5
100
AcDbSymbolTableRecord
100
AcDbLinetypeTableRecord
  2
BORDERX2
 70
     0
  3
Border (2x) ____  ____  .  ____  ____  .  ___
 72
    65
 73
     6
 40
88.89999999999999
 49
25.4
 74
     0
 49
-12.7
 74
     0
 49
25.4
 74
     0
 49
-12.7
 74
     0
 49
0.0
 74
     0
 49
-12.7
 74
     0
  0
LTYPE
  5
82
330
5
100
AcDbSymbolTableRecord
100
AcDbLinetypeTableRecord
  2
BORDER
 70
     0
  3
Border __ __ . __ __ . __ __ . __ __ . __ __ .
 72
    65
 73
     6
 40
44.45
 49
12.7
 74
     0
 49
-6.35
 74
     0
 49
12.7
 74
     0
 49
-6.35
 74
     0
 49
0.0
 74
     0
 49
-6.35
 74
     0
  0
LTYPE
  5
83
330
5
100
AcDbSymbolTableRecord
100
AcDbLinetypeTableRecord
  2
BORDER2
 70
     0
  3
Border (.5x) __.__.__.__.__.__.__.__.__.__.__.
 72
    65
 73
     6
 40
22.225
 49
6.35
 74
     0
 49
-3.175
 74
     0
 49
6.35
 74
     0
 49
-3.175
 74
     0
 49
0.0
 74
     0
 49
-3.175
 74
     0
  0
LTYPE
  5
84
330
5
100
AcDbSymbolTableRecord
100
AcDbLinetypeTableRecord
  2
PHANTOMX2
 70
     0
  3
Phantom (2x) ____________    ____    ____   _
 72
    65
 73
     6
 40
127.0
 49
63.5
 74
     0
 49
-12.7
 74
     0
 49
12.7
 74
     0
 49
-12.7
 74
     0
 49
12.7
 74
     0
 49
-12.7
 74
     0
  0
LTYPE
  5
85
330
5
100
AcDbSymbolTableRecord
100
AcDbLinetypeTableRecord
  2
PHANTOM
 70
     0
  3
Phantom ______  __  __  ______  __  __  ______ 
 72
    65
 73
     6
 40
63.5
 49
31.75
 74
     0
 49
-6.35
 74
     0
 49
6.35
 74
     0
 49
-6.35
 74
     0
 49
6.35
 74
     0
 49
-6.35
 74
     0
  0
LTYPE
  5
86
330
5
100
AcDbSymbolTableRecord
100
AcDbLinetypeTableRecord
  2
PHANTOM2
 70
     0
  3
Phantom (.5x) ___ _ _ ___ _ _ ___ _ _ ___ _ _
 72
    65
 73
     6
 40
31.75
 49
15.875
 74
     0
 49
-3.175
 74
     0
 49
3.175
 74
     0
 49
-3.175
 74
     0
 49
3.175
 74
     0
 49
-3.175
 74
     0
  0
LTYPE
  5
87
330
5
100
AcDbSymbolTableRecord
100
AcDbLinetypeTableRecord
  2
ACAD_ISO06W100
 70
     0
  3
ISO long-dash triple-dot ____ ... ____ ... ____
 72
    65
 73
     8
 40
36.0
 49
24.0
 74
     0
 49
-3.0
 74
     0
 49
0.0
 74
     0
 49
-3.0
 74
     0
 49
0.0
 74
     0
 49
-3.0
 74
     0
 49
0.0
 74
     0
 49
-3.0
 74
     0
  0
LTYPE
  5
88
330
5
100
AcDbSymbolTableRecord
100
AcDbLinetypeTableRecord
  2
ACAD_ISO13W100
 70
     0
  3
ISO double-dash double-dot __ __ . . __ __ . . _
 72
    65
 73
     8
 40
36.0
 49
12.0
 74
     0
 49
-3.0
 74
     0
 49
12.0
 74
     0
 49
-3.0
 74
     0
 49
0.0
 74
     0
 49
-3.0
 74
     0
 49
0.0
 74
     0
 49
-3.0
 74
     0
  0
LTYPE
  5
89
330
5
100
AcDbSymbolTableRecord
100
AcDbLinetypeTableRecord
  2
ACAD_ISO14W100
 70
     0
  3
ISO dash triple-dot __ . . . __ . . . __ . . . _
 72
    65
 73
     8
 40
24.0
 49
12.0
 74
     0
 49
-3.0
 74
     0
 49
0.0
 74
     0
 49
-3.0
 74
     0
 49
0.0
 74
     0
 49
-3.0
 74
     0
 49
0.0
 74
     0
 49
-3.0
 74
     0
  0
LTYPE
  5
8A
330
5
100
AcDbSymbolTableRecord
100
AcDbLinetypeTableRecord
  2
ACAD_ISO02W100
 70
     0
  3
ISO dash __ __ __ __ __ __ __ __ __ __ __ __ __
 72
    65
 73
     2
 40
15.0
 49
12.0
 74
     0
 49
-3.0
 74
     0
  0
LTYPE
  5
8B
330
5
100
AcDbSymbolTableRecord
100
AcDbLinetypeTableRecord
  2
ACAD_ISO03W100
 70
     0
  3
ISO dash space __    __    __    __    __    __
 72
    65
 73
     2
 40
30.0
 49
12.0
 74
     0
 49
-18.0
 74
     0
  0
LTYPE
  5
8C
330
5
100
AcDbSymbolTableRecord
100
AcDbLinetypeTableRecord
  2
ACAD_ISO04W100
 70
     0
  3
ISO long-dash dot ____ . ____ . ____ . ____ . _
 72
    65
 73
     4
 40
30.0
 49
24.0
 74
     0
 49
-3.0
 74
     0
 49
0.0
 74
     0
 49
-3.0
 74
     0
  0
LTYPE
  5
8D
330
5
100
AcDbSymbolTableRecord
100
AcDbLinetypeTableRecord
  2
ACAD_ISO05W100
 70
     0
  3
ISO long-dash double-dot ____ .. ____ .. ____ . 
 72
    65
 73
     6
 40
33.0
 49
24.0
 74
     0
 49
-3.0
 74
     0
 49
0.0
 74
     0
 49
-3.0
 74
     0
 49
0.0
 74
     0
 49
-3.0
 74
     0
  0
LTYPE
  5
8E
330
5
100
AcDbSymbolTableRecord
100
AcDbLinetypeTableRecord
  2
ACAD_ISO07W100
 70
     0
  3
ISO dot . . . . . . . . . . . . . . . . . . . . 
 72
    65
 73
     2
 40
3.0
 49
0.0
 74
     0
 49
-3.0
 74
     0
  0
LTYPE
  5
8F
330
5
100
AcDbSymbolTableRecord
100
AcDbLinetypeTableRecord
  2
ACAD_ISO08W100
 70
     0
  3
ISO long-dash short-dash ____ __ ____ __ ____ _
 72
    65
 73
     4
 40
36.0
 49
24.0
 74
     0
 49
-3.0
 74
     0
 49
6.0
 74
     0
 49
-3.0
 74
     0
  0
LTYPE
  5
90
330
5
100
AcDbSymbolTableRecord
100
AcDbLinetypeTableRecord
  2
ACAD_ISO09W100
 70
     0
  3
ISO long-dash double-short-dash ____ __ __ ____
 72
    65
 73
     6
 40
45.0
 49
24.0
 74
     0
 49
-3.0
 74
     0
 49
6.0
 74
     0
 49
-3.0
 74
     0
 49
6.0
 74
     0
 49
-3.0
 74
     0
  0
LTYPE
  5
91
330
5
100
AcDbSymbolTableRecord
100
AcDbLinetypeTableRecord
  2
ACAD_ISO10W100
 70
     0
  3
ISO dash dot __ . __ . __ . __ . __ . __ . __ . 
 72
    65
 73
     4
 40
18.0
 49
12.0
 74
     0
 49
-3.0
 74
     0
 49
0.0
 74
     0
 49
-3.0
 74
     0
  0
LTYPE
  5
92
330
5
100
AcDbSymbolTableRecord
100
AcDbLinetypeTableRecord
  2
ACAD_ISO11W100
 70
     0
  3
ISO double-dash dot __ __ . __ __ . __ __ . __ _
 72
    65
 73
     6
 40
33.0
 49
12.0
 74
     0
 49
-3.0
 74
     0
 49
12.0
 74
     0
 49
-3.0
 74
     0
 49
0.0
 74
     0
 49
-3.0
 74
     0
  0
LTYPE
  5
93
330
5
100
AcDbSymbolTableRecord
100
AcDbLinetypeTableRecord
  2
ACAD_ISO12W100
 70
     0
  3
ISO dash double-dot __ . . __ . . __ . . __ . . 
 72
    65
 73
     6
 40
21.0
 49
12.0
 74
     0
 49
-3.0
 74
     0
 49
0.0
 74
     0
 49
-3.0
 74
     0
 49
0.0
 74
     0
 49
-3.0
 74
     0
  0
LTYPE
  5
94
330
5
100
AcDbSymbolTableRecord
100
AcDbLinetypeTableRecord
  2
ACAD_ISO15W100
 70
     0
  3
ISO double-dash triple-dot __ __ . . . __ __ . .
 72
    65
 73
    10
 40
39.0
 49
12.0
 74
     0
 49
-3.0
 74
     0
 49
12.0
 74
     0
 49
-3.0
 74
     0
 49
0.0
 74
     0
 49
-3.0
 74
     0
 49
0.0
 74
     0
 49
-3.0
 74
     0
 49
0.0
 74
     0
 49
-3.0
 74
     0
  0
LTYPE
  5
95
330
5
100
AcDbSymbolTableRecord
100
AcDbLinetypeTableRecord
  2
JIS_02_0_7
 70
     0
  3
HIDDEN0.75 _ _ _ _ _ _ _ _ _ _ _ _ _ _ _ _ _ 
 72
    65
 73
     2
 40
1.35
 49
0.75
 74
     0
 49
-0.6
 74
     0
  0
LTYPE
  5
96
330
5
100
AcDbSymbolTableRecord
100
AcDbLinetypeTableRecord
  2
JIS_02_1_0
 70
     0
  3
HIDDEN01 _ _ _ _ _ _ _ _ _ _ _ _ _ _ _ _ _ 
 72
    65
 73
     2
 40
2.0
 49
1.0
 74
     0
 49
-1.0
 74
     0
  0
LTYPE
  5
97
330
5
100
AcDbSymbolTableRecord
100
AcDbLinetypeTableRecord
  2
JIS_02_1_2
 70
     0
  3
HIDDEN01.25  _ _ _ _ _ _ _ _ _ _ _ _ _ _ _ _ _ 
 72
    65
 73
     2
 40
2.5
 49
1.25
 74
     0
 49
-1.25
 74
     0
  0
LTYPE
  5
98
330
5
100
AcDbSymbolTableRecord
100
AcDbLinetypeTableRecord
  2
JIS_02_2_0
 70
     0
  3
HIDDEN02 __ __ __ __ __ __ __ __ __ __ __ 
 72
    65
 73
     2
 40
3.0
 49
2.0
 74
     0
 49
-1.0
 74
     0
  0
LTYPE
  5
99
330
5
100
AcDbSymbolTableRecord
100
AcDbLinetypeTableRecord
  2
JIS_02_4_0
 70
     0
  3
HIDDEN04 ____ ____ ____ ____ ____ ____ ____ 
 72
    65
 73
     2
 40
5.5
 49
4.0
 74
     0
 49
-1.5
 74
     0
  0
LTYPE
  5
9A
330
5
100
AcDbSymbolTableRecord
100
AcDbLinetypeTableRecord
  2
JIS_08_11
 70
     0
  3
1SASEN11 ___ _ ___ _ ___ _ ___ _ ___ _ ___
 72
    65
 73
     4
 40
12.8
 49
11.0
 74
     0
 49
-0.6
 74
     0
 49
0.6
 74
     0
 49
-0.6
 74
     0
  0
LTYPE
  5
9B
330
5
100
AcDbSymbolTableRecord
100
AcDbLinetypeTableRecord
  2
JIS_08_15
 70
     0
  3
1SASEN15 ____ _ ____ _ ____ _ ____ _ ____ 
 72
    65
 73
     4
 40
17.25
 49
15.0
 74
     0
 49
-0.75
 74
     0
 49
0.75
 74
     0
 49
-0.75
 74
     0
  0
LTYPE
  5
9C
330
5
100
AcDbSymbolTableRecord
100
AcDbLinetypeTableRecord
  2
JIS_08_25
 70
     0
  3
1SASEN25 ________  __  ________  __  _____
 72
    65
 73
     4
 40
28.0
 49
25.0
 74
     0
 49
-1.125
 74
     0
 49
0.75
 74
     0
 49
-1.125
 74
     0
  0
LTYPE
  5
9D
330
5
100
AcDbSymbolTableRecord
100
AcDbLinetypeTableRecord
  2
JIS_08_37
 70
     0
  3
1SASEN37 ________  __  ________  __  _____
 72
    65
 73
     4
 40
40.5
 49
37.5
 74
     0
 49
-1.125
 74
     0
 49
0.75
 74
     0
 49
-1.125
 74
     0
  0
LTYPE
  5
9E
330
5
100
AcDbSymbolTableRecord
100
AcDbLinetypeTableRecord
  2
JIS_08_50
 70
     0
  3
1SASEN50 _______________  __  ____________
 72
    65
 73
     4
 40
53.0
 49
50.0
 74
     0
 49
-1.125
 74
     0
 49
0.75
 74
     0
 49
-1.125
 74
     0
  0
LTYPE
  5
9F
330
5
100
AcDbSymbolTableRecord
100
AcDbLinetypeTableRecord
  2
JIS_09_08
 70
     0
  3
2SASEN8 __ _ _ __ _ _ __ _ _ __ _ _ __ _ _ 
 72
    65
 73
     6
 40
10.75
 49
8.0
 74
     0
 49
-0.55
 74
     0
 49
0.55
 74
     0
 49
-0.55
 74
     0
 49
0.55
 74
     0
 49
-0.55
 74
     0
  0
LTYPE
  5
A0
330
5
100
AcDbSymbolTableRecord
100
AcDbLinetypeTableRecord
  2
JIS_09_15
 70
     0
  3
2SASEN15 ___ _ _ ___ _ _ ___ _ _ ___ _ _ ___ 
 72
    65
 73
     6
 40
18.9
 49
15.0
 74
     0
 49
-0.9
 74
     0
 49
0.6
 74
     0
 49
-0.9
 74
     0
 49
0.6
 74
     0
 49
-0.9
 74
     0
  0
LTYPE
  5
A1
330
5
100
AcDbSymbolTableRecord
100
AcDbLinetypeTableRecord
  2
JIS_09_29
 70
     0
  3
2SASEN29 ______　__  __  ______　__  __  ___
 72
    65
 73
     6
 40
34.0
 49
29.0
 74
     0
 49
-1.2
 74
     0
 49
0.7
 74
     0
 49
-1.2
 74
     0
 49
0.7
 74
     0
 49
-1.2
 74
     0
  0
LTYPE
  5
A2
330
5
100
AcDbSymbolTableRecord
100
AcDbLinetypeTableRecord
  2
JIS_09_50
 70
     0
  3
2SASEN50 ____________　__  __  _____________
 72
    65
 73
     6
 40
55.0
 49
50.0
 74
     0
 49
-1.2
 74
     0
 49
0.7
 74
     0
 49
-1.2
 74
     0
 49
0.7
 74
     0
 49
-1.2
 74
     0
  0
LTYPE
  5
A3
330
5
100
AcDbSymbolTableRecord
100
AcDbLinetypeTableRecord
  2
SXF_破線
 70
     0
  3
02 dashed -- -- -- -- -- --
 72
    65
 73
     2
 40
7.5
 49
6.0
 74
     0
 49
-1.5
 74
     0
  0
LTYPE
  5
A4
330
5
100
AcDbSymbolTableRecord
100
AcDbLinetypeTableRecord
  2
SXF_跳び破線
 70
     0
  3
03 dashed_spaced --  --  --  --
 72
    65
 73
     2
 40
12.0
 49
6.0
 74
     0
 49
-6.0
 74
     0
  0
LTYPE
  5
A5
330
5
100
AcDbSymbolTableRecord
100
AcDbLinetypeTableRecord
  2
SXF_一点長鎖線
 70
     0
  3
04 long_dashed_dotted ---- . ---- . ----
 72
    65
 73
     4
 40
15.25
 49
12.0
 74
     0
 49
-1.5
 74
     0
 49
0.25
 74
     0
 49
-1.5
 74
     0
  0
LTYPE
  5
A6
330
5
100
AcDbSymbolTableRecord
100
AcDbLinetypeTableRecord
  2
SXF_二点長鎖線
 70
     0
  3
05 long_dashed_double-dotted ---- . . ---- 
 72
    65
 73
     6
 40
17.0
 49
12.0
 74
     0
 49
-1.5
 74
     0
 49
0.25
 74
     0
 49
-1.5
 74
     0
 49
0.25
 74
     0
 49
-1.5
 74
     0
  0
LTYPE
  5
A7
330
5
100
AcDbSymbolTableRecord
100
AcDbLinetypeTableRecord
  2
SXF_三点長鎖線
 70
     0
  3
06 long_dashed_triplicate-dotted ---- ... ---- 
 72
    65
 73
     8
 40
18.75
 49
12.0
 74
     0
 49
-1.5
 74
     0
 49
0.25
 74
     0
 49
-1.5
 74
     0
 49
0.25
 74
     0
 49
-1.5
 74
     0
 49
0.25
 74
     0
 49
-1.5
 74
     0
  0
LTYPE
  5
A8
330
5
100
AcDbSymbolTableRecord
100
AcDbLinetypeTableRecord
  2
SXF_点線
 70
     0
  3
07 dotted . . . . . . . . . . . . 
 72
    65
 73
     2
 40
1.75
 49
0.25
 74
     0
 49
-1.5
 74
     0
  0
LTYPE
  5
A9
330
5
100
AcDbSymbolTableRecord
100
AcDbLinetypeTableRecord
  2
SXF_一点鎖線
 70
     0
  3
08 chain ---- - --- - --- - ---
 72
    65
 73
     4
 40
18.5
 49
12.0
 74
     0
 49
-1.5
 74
     0
 49
3.5
 74
     0
 49
-1.5
 74
     0
  0
LTYPE
  5
AA
330
5
100
AcDbSymbolTableRecord
100
AcDbLinetypeTableRecord
  2
SXF_二点鎖線
 70
     0
  3
09 chain_double_dash ---- - - ---- - - ----
 72
    65
 73
     6
 40
23.5
 49
12.0
 74
     0
 49
-1.5
 74
     0
 49
3.5
 74
     0
 49
-1.5
 74
     0
 49
3.5
 74
     0
 49
-1.5
 74
     0
  0
LTYPE
  5
AB
330
5
100
AcDbSymbolTableRecord
100
AcDbLinetypeTableRecord
  2
SXF_一点短鎖線
 70
     0
  3
10 dashed_dotted -- . -- . -- . --
 72
    65
 73
     4
 40
9.25
 49
6.0
 74
     0
 49
-1.5
 74
     0
 49
0.25
 74
     0
 49
-1.5
 74
     0
  0
LTYPE
  5
AC
330
5
100
AcDbSymbolTableRecord
100
AcDbLinetypeTableRecord
  2
SXF_一点二短鎖線
 70
     0
  3
11 double-dashed_dotted -- -- . -- --
 72
    65
 73
     6
 40
16.75
 49
6.0
 74
     0
 49
-1.5
 74
     0
 49
6.0
 74
     0
 49
-1.5
 74
     0
 49
0.25
 74
     0
 49
-1.5
 74
     0
  0
LTYPE
  5
AD
330
5
100
AcDbSymbolTableRecord
100
AcDbLinetypeTableRecord
  2
SXF_二点短鎖線
 70
     0
  3
12 dashed_double_dotted -- . . -- . . --
 72
    65
 73
     6
 40
11.0
 49
6.0
 74
     0
 49
-1.5
 74
     0
 49
0.25
 74
     0
 49
-1.5
 74
     0
 49
0.25
 74
     0
 49
-1.5
 74
     0
  0
LTYPE
  5
AE
330
5
100
AcDbSymbolTableRecord
100
AcDbLinetypeTableRecord
  2
SXF_二点二短鎖線
 70
     0
  3
13 double-dashed_double-dotted -- -- . . -- --
 72
    65
 73
     8
 40
18.5
 49
6.0
 74
     0
 49
-1.5
 74
     0
 49
6.0
 74
     0
 49
-1.5
 74
     0
 49
0.25
 74
     0
 49
-1.5
 74
     0
 49
0.25
 74
     0
 49
-1.5
 74
     0
  0
LTYPE
  5
AF
330
5
100
AcDbSymbolTableRecord
100
AcDbLinetypeTableRecord
  2
SXF_三点短鎖線
 70
     0
  3
14 dashed triplicate-dotted -- . . . -- . . . --
 72
    65
 73
     8
 40
12.75
 49
6.0
 74
     0
 49
-1.5
 74
     0
 49
0.25
 74
     0
 49
-1.5
 74
     0
 49
0.25
 74
     0
 49
-1.5
 74
     0
 49
0.25
 74
     0
 49
-1.5
 74
     0
  0
LTYPE
  5
B0
330
5
100
AcDbSymbolTableRecord
100
AcDbLinetypeTableRecord
  2
SXF_三点二短鎖線
 70
     0
  3
15 double-dashed triplicate-dotted -- -- . . . -- -- 
 72
    65
 73
    10
 40
20.25
 49
6.0
 74
     0
 49
-1.5
 74
     0
 49
6.0
 74
     0
 49
-1.5
 74
     0
 49
0.25
 74
     0
 49
-1.5
 74
     0
 49
0.25
 74
     0
 49
-1.5
 74
     0
 49
0.25
 74
     0
 49
-1.5
 74
     0
  0
ENDTAB
  0
TABLE
  2
LAYER
  5
2
330
0
100
AcDbSymbolTable
 70
     6
  0
LAYER
  5
10
330
2
100
AcDbSymbolTableRecord
100
AcDbLayerTableRecord
  2
0
 70
     0
 62
     7
  6
CONTINUOUS
  0
LAYER
  5
B1
330
2
100
AcDbSymbolTableRecord
100
AcDbLayerTableRecord
  2
AM_0
 70
     0
 62
     7
  6
CONTINUOUS
  0
LAYER
  5
B2
330
2
100
AcDbSymbolTableRecord
100
AcDbLayerTableRecord
  2
AM_7
 70
     0
 62
     7
  6
CONTINUOUS
  0
LAYER
  5
B3
330
2
100
AcDbSymbolTableRecord
100
AcDbLayerTableRecord
  2
AM_5
 70
     0
 62
     7
  6
CONTINUOUS
  0
LAYER
  5
B4
330
2
100
AcDbSymbolTableRecord
100
AcDbLayerTableRecord
  2
AM_4
 70
     0
 62
     7
  6
CONTINUOUS
  0
LAYER
  5
B5
330
2
100
AcDbSymbolTableRecord
100
AcDbLayerTableRecord
  2
AM_11
 70
     0
 62
     7
  6
CONTINUOUS
  0
ENDTAB
  0
TABLE
  2
STYLE
  5
3
330
0
100
AcDbSymbolTable
 70
     2
  0
STYLE
  5
11
330
3
100
AcDbSymbolTableRecord
100
AcDbTextStyleTableRecord
  2
STANDARD
 70
     0
 40
0.0
 41
1.0
 50
0.0
 71
     0
 42
0.2
  3
txt.shx
  4
bigfont.shx
  0
STYLE
  5
DB
330
3
100
AcDbSymbolTableRecord
100
AcDbTextStyleTableRecord
  2
DCSTYLE0
 70
     0
 40
0.0
 41
0.7500000000000007
 50
0.0
 71
     0
 42
0.2
  3
txt.shx
  4
bigfont
  0
ENDTAB
  0
TABLE
  2
VIEW
  5
6
330
0
100
AcDbSymbolTable
 70
     0
  0
ENDTAB
  0
TABLE
  2
UCS
  5
7
330
0
100
AcDbSymbolTable
 70
     0
  0
ENDTAB
  0
TABLE
  2
APPID
  5
9
330
0
100
AcDbSymbolTable
 70
     3
  0
APPID
  5
12
330
9
100
AcDbSymbolTableRecord
100
AcDbRegAppTableRecord
  2
ACAD
 70
     0
  0
APPID
  5
6E
330
9
100
AcDbSymbolTableRecord
100
AcDbRegAppTableRecord
  2
DAFUSIONOUT
 70
     0
  0
APPID
  5
242
330
9
100
AcDbSymbolTableRecord
100
AcDbRegAppTableRecord
  2
ACAD_MLEADERVER
 70
     0
  0
ENDTAB
  0
TABLE
  2
DIMSTYLE
  5
A
330
0
100
AcDbSymbolTable
 70
     2
  0
DIMSTYLE
105
27
330
A
100
AcDbSymbolTableRecord
100
AcDbDimStyleTableRecord
  2
STANDARD
 70
     0
  3

  4

  5

  6

  7

 40
1.0
 41
0.18
 42
0.0625
 43
0.38
 44
0.18
 45
0.0
 46
0.0
 47
0.0
 48
0.0
140
0.18
141
0.09
142
0.0
143
25.4
144
1.0
145
0.0
146
1.0
147
0.09
 71
     0
 72
     0
 73
     1
 74
     1
 75
     0
 76
     0
 77
     0
 78
     0
170
     0
171
     2
172
     0
173
     0
174
     0
175
     0
176
     0
177
     0
178
     0
270
     2
271
     4
272
     4
273
     2
274
     2
340
11
275
     0
280
     0
281
     0
282
     0
283
     1
284
     0
285
     0
286
     0
287
     3
288
     0
  0
DIMSTYLE
105
151
102
{ACAD_REACTORS
330
150
102
}
330
A
100
AcDbSymbolTableRecord
100
AcDbDimStyleTableRecord
  2
DC_DIAM01
 70
     0
  3

  4

  5

  6
OPEN30
  7
OPEN30
 40
1.0
 41
0.5000268816947937
 42
0.25
 43
0.38
 44
0.25
 45
0.0
 46
0.0
 47
0.0
 48
0.0
140
3.5
141
0.09
142
0.0
143
25.4
144
1.0
145
0.0
146
1.0
147
1.499999999999995
 71
     0
 72
     0
 73
     0
 74
     0
 75
     0
 76
     0
 77
     3
 78
     8
170
     0
171
     2
172
     1
173
     1
174
     0
175
     0
176
     3
177
     7
178
     2
270
     2
271
     3
272
     4
273
     2
274
     4
340
DB
275
     0
280
     0
281
     0
282
     0
283
     0
284
     8
285
     0
286
     0
287
     1
288
     1
  0
ENDTAB
  0
TABLE
  2
BLOCK_RECORD
  5
1
330
0
100
AcDbSymbolTable
 70
     6
  0
BLOCK_RECORD
  5
1F
330
1
100
AcDbSymbolTableRecord
100
AcDbBlockTableRecord
  2
*MODEL_SPACE
  0
BLOCK_RECORD
  5
1B
330
1
100
AcDbSymbolTableRecord
100
AcDbBlockTableRecord
  2
*PAPER_SPACE
  0
BLOCK_RECORD
  5
B7
330
1
100
AcDbSymbolTableRecord
100
AcDbBlockTableRecord
  2
DC_GROUP_1
  0
BLOCK_RECORD
  5
BA
330
1
100
AcDbSymbolTableRecord
100
AcDbBlockTableRecord
  2
DC_GROUP_2
  0
BLOCK_RECORD
  5
BD
330
1
100
AcDbSymbolTableRecord
100
AcDbBlockTableRecord
  2
*D3
  0
BLOCK_RECORD
  5
C0
330
1
100
AcDbSymbolTableRecord
100
AcDbBlockTableRecord
  2
DC_GROUP_3
  0
BLOCK_RECORD
  5
C3
330
1
100
AcDbSymbolTableRecord
100
AcDbBlockTableRecord
  2
DC_GROUP_4
  0
BLOCK_RECORD
  5
D3
330
1
100
AcDbSymbolTableRecord
100
AcDbBlockTableRecord
  2
_OPEN30
  0
ENDTAB
  0
ENDSEC
  0
SECTION
  2
BLOCKS
  0
BLOCK
  5
20
330
1F
100
AcDbEntity
  8
0
100
AcDbBlockBegin
  2
*MODEL_SPACE
 70
     0
 10
0.0
 20
0.0
 30
0.0
  3
*MODEL_SPACE
  1

  0
ENDBLK
  5
21
330
1F
100
AcDbEntity
  8
0
100
AcDbBlockEnd
  0
BLOCK
  5
1C
330
1B
100
AcDbEntity
 67
     1
  8
0
100
AcDbBlockBegin
  2
*PAPER_SPACE
 70
     0
 10
0.0
 20
0.0
 30
0.0
  3
*PAPER_SPACE
  1

  0
ENDBLK
  5
1D
330
1B
100
AcDbEntity
 67
     1
  8
0
100
AcDbBlockEnd
  0
BLOCK
  5
B8
330
B7
100
AcDbEntity
  8
0
100
AcDbBlockBegin
  2
DC_GROUP_1
 70
     0
 10
0.0
 20
0.0
 30
0.0
  3
DC_GROUP_1
  1

  0
LINE
  5
C6
330
B7
100
AcDbEntity
  8
AM_0
  6
CONTINUOUS
 62
     7
100
AcDbLine
 10
68.96277357246453
 20
-43.88034778608618
 30
0.0
 11
66.65337249570604
 21
-47.88034778608628
 31
0.0
  0
LINE
  5
C7
330
B7
100
AcDbEntity
  8
AM_0
  6
CONTINUOUS
 62
     7
100
AcDbLine
 10
66.65337249570604
 20
-47.88034778608628
 30
0.0
 11
68.96277357246453
 21
-51.88034778608628
 31
0.0
  0
LINE
  5
C8
330
B7
100
AcDbEntity
  8
AM_0
  6
CONTINUOUS
 62
     7
100
AcDbLine
 10
68.96277357246453
 20
-51.88034778608628
 30
0.0
 11
73.58157572598145
 21
-51.88034778608628
 31
0.0
  0
LINE
  5
C9
330
B7
100
AcDbEntity
  8
AM_0
  6
CONTINUOUS
 62
     7
100
AcDbLine
 10
73.58157572598145
 20
-51.88034778608628
 30
0.0
 11
75.89097680273994
 21
-47.88034778608628
 31
0.0
  0
LINE
  5
CA
330
B7
100
AcDbEntity
  8
AM_0
  6
CONTINUOUS
 62
     7
100
AcDbLine
 10
75.89097680273994
 20
-47.88034778608628
 30
0.0
 11
73.58157572598145
 21
-43.88034778608618
 31
0.0
  0
LINE
  5
CB
330
B7
100
AcDbEntity
  8
AM_0
  6
CONTINUOUS
 62
     7
100
AcDbLine
 10
73.58157572598145
 20
-43.88034778608618
 30
0.0
 11
68.96277357246453
 21
-43.88034778608618
 31
0.0
  0
ENDBLK
  5
B9
330
B7
100
AcDbEntity
  8
0
100
AcDbBlockEnd
  0
BLOCK
  5
BB
330
BA
100
AcDbEntity
  8
0
100
AcDbBlockBegin
  2
DC_GROUP_2
 70
     0
 10
0.0
 20
0.0
 30
0.0
  3
DC_GROUP_2
  1

  0
LINE
  5
CC
330
BA
100
AcDbEntity
  8
AM_0
  6
CONTINUOUS
 62
     7
100
AcDbLine
 10
28.96277357246453
 20
-43.88034778608618
 30
0.0
 11
26.65337249570604
 21
-47.88034778608628
 31
0.0
  0
LINE
  5
CD
330
BA
100
AcDbEntity
  8
AM_0
  6
CONTINUOUS
 62
     7
100
AcDbLine
 10
26.65337249570604
 20
-47.88034778608628
 30
0.0
 11
28.96277357246453
 21
-51.88034778608628
 31
0.0
  0
LINE
  5
CE
330
BA
100
AcDbEntity
  8
AM_0
  6
CONTINUOUS
 62
     7
100
AcDbLine
 10
28.96277357246453
 20
-51.88034778608628
 30
0.0
 11
33.58157572598145
 21
-51.88034778608628
 31
0.0
  0
LINE
  5
CF
330
BA
100
AcDbEntity
  8
AM_0
  6
CONTINUOUS
 62
     7
100
AcDbLine
 10
33.58157572598145
 20
-51.88034778608628
 30
0.0
 11
35.89097680273994
 21
-47.88034778608628
 31
0.0
  0
LINE
  5
D0
330
BA
100
AcDbEntity
  8
AM_0
  6
CONTINUOUS
 62
     7
100
AcDbLine
 10
35.89097680273994
 20
-47.88034778608628
 30
0.0
 11
33.58157572598145
 21
-43.88034778608618
 31
0.0
  0
LINE
  5
D1
330
BA
100
AcDbEntity
  8
AM_0
  6
CONTINUOUS
 62
     7
100
AcDbLine
 10
33.58157572598145
 20
-43.88034778608618
 30
0.0
 11
28.96277357246453
 21
-43.88034778608618
 31
0.0
  0
ENDBLK
  5
BC
330
BA
100
AcDbEntity
  8
0
100
AcDbBlockEnd
  0
BLOCK
  5
BE
330
BD
100
AcDbEntity
  8
0
100
AcDbBlockBegin
  2
*D3
 70
     1
 10
0.0
 20
0.0
 30
0.0
  3
*D3
  1

  0
LINE
  5
D2
330
BD
100
AcDbEntity
  8
AM_5
  6
CONTINUOUS
 62
     3
100
AcDbLine
 10
59.99534742039486
 20
33.78944721705872
 30
0.0
 11
42.54900187805117
 21
43.56825221650243
 31
0.0
  0
INSERT
  5
D9
330
BD
100
AcDbEntity
  8
AM_5
 62
     3
100
AcDbBlockReference
  2
_OPEN30
 10
59.99534742039486
 20
33.78944721705872
 30
0.0
 41
0.5000384167464756
 42
0.4998661914775875
 50
330.7290489455559
  0
INSERT
  5
DA
330
BD
100
AcDbEntity
  8
AM_5
 62
     3
100
AcDbBlockReference
  2
_OPEN30
 10
42.54900187805117
 20
43.56825221650243
 30
0.0
 41
0.5000384167464756
 42
0.4998661914775875
 50
150.7290489455559
  0
MTEXT
  5
DC
330
BD
100
AcDbEntity
  8
AM_5
 62
     2
100
AcDbMText
 10
47.74430098535765
 20
42.375806679204
 30
0.0
 40
3.5
 41
14.87500000000001
 71
     8
 72
     1
  1
\T1.00;φ20
  7
DCSTYLE0
 11
0.8723172771171838
 21
-0.4889402499721847
 31
0.0
  0
ENDBLK
  5
BF
330
BD
100
AcDbEntity
  8
0
100
AcDbBlockEnd
  0
BLOCK
  5
C1
330
C0
100
AcDbEntity
  8
0
100
AcDbBlockBegin
  2
DC_GROUP_3
 70
     0
 10
0.0
 20
0.0
 30
0.0
  3
DC_GROUP_3
  1

  0
TEXT
  5
DD
330
C0
100
AcDbEntity
  8
AM_0
 62
     7
100
AcDbText
 10
92.5833893892945
 20
-88.58419666682704
 30
0.0
 40
4.5
  1
000
 41
0.6631578947368417
  7
DCSTYLE0
 72
     5
 11
100.6833893892945
 21
-88.58419666682704
 31
0.0
100
AcDbText
  0
ENDBLK
  5
C2
330
C0
100
AcDbEntity
  8
0
100
AcDbBlockEnd
  0
BLOCK
  5
C4
330
C3
100
AcDbEntity
  8
0
100
AcDbBlockBegin
  2
DC_GROUP_4
 70
     0
 10
0.0
 20
0.0
 30
0.0
  3
DC_GROUP_4
  1

  0
LINE
  5
DE
330
C3
100
AcDbEntity
  8
AM_11
  6
CENTER
 62
     3
100
AcDbLine
 10
-94.03722642753556
 20
-43.88034778608638
 30
0.0
 11
-96.34662750429405
 21
-47.88034778608638
 31
0.0
  0
LINE
  5
DF
330
C3
100
AcDbEntity
  8
AM_11
  6
CENTER
 62
     3
100
AcDbLine
 10
-96.34662750429405
 20
-47.88034778608638
 30
0.0
 11
-94.03722642753556
 21
-51.88034778608638
 31
0.0
  0
LINE
  5
E0
330
C3
100
AcDbEntity
  8
AM_11
  6
CENTER
 62
     3
100
AcDbLine
 10
-94.03722642753556
 20
-51.88034778608638
 30
0.0
 11
-89.41842427401855
 21
-51.88034778608638
 31
0.0
  0
LINE
  5
E1
330
C3
100
AcDbEntity
  8
AM_11
  6
CENTER
 62
     3
100
AcDbLine
 10
-89.41842427401855
 20
-51.88034778608638
 30
0.0
 11
-87.10902319726006
 21
-47.88034778608638
 31
0.0
  0
LINE
  5
E2
330
C3
100
AcDbEntity
  8
AM_11
  6
CENTER
 62
     3
100
AcDbLine
 10
-87.10902319726006
 20
-47.88034778608638
 30
0.0
 11
-89.41842427401855
 21
-43.88034778608638
 31
0.0
  0
LINE
  5
E3
330
C3
100
AcDbEntity
  8
AM_11
  6
CENTER
 62
     3
100
AcDbLine
 10
-89.41842427401855
 20
-43.88034778608638
 30
0.0
 11
-94.03722642753556
 21
-43.88034778608638
 31
0.0
  0
ENDBLK
  5
C5
330
C3
100
AcDbEntity
  8
0
100
AcDbBlockEnd
  0
BLOCK
  5
D4
330
D3
100
AcDbEntity
  8
0
100
AcDbBlockBegin
  2
_OPEN30
 70
     0
 10
0.0
 20
0.0
 30
0.0
  3
_OPEN30
  1

  0
LINE
  5
D6
330
D3
100
AcDbEntity
  8
0
  6
BYBLOCK
 62
     0
100
AcDbLine
 10
-1.0
 20
0.267949
 30
0.0
 11
0.0
 21
0.0
 31
0.0
  0
LINE
  5
D7
330
D3
100
AcDbEntity
  8
0
  6
BYBLOCK
 62
     0
100
AcDbLine
 10
0.0
 20
0.0
 30
0.0
 11
-1.0
 21
-0.267949
 31
0.0
  0
LINE
  5
D8
330
D3
100
AcDbEntity
  8
0
  6
BYBLOCK
 62
     0
100
AcDbLine
 10
0.0
 20
0.0
 30
0.0
 11
-1.0
 21
0.0
 31
0.0
  0
ENDBLK
  5
D5
330
D3
100
AcDbEntity
  8
0
100
AcDbBlockEnd
  0
ENDSEC
  0
SECTION
  2
ENTITIES
  0
LINE
  5
E4
330
1F
100
AcDbEntity
  8
AM_7
  6
CENTER
 62
     4
100
AcDbLine
 10
84.27217464922307
 20
-47.88034778608628
 30
0.0
 11
-129.4210071689589
 21
-47.88034778608628
 31
0.0
  0
LINE
  5
E5
330
1F
100
AcDbEntity
  8
AM_7
  6
CENTER
 62
     4
100
AcDbLine
 10
71.27217464922307
 20
-34.88034778608618
 30
0.0
 11
71.27217464922307
 21
-60.88034778608618
 31
0.0
  0
LINE
  5
E6
330
1F
100
AcDbEntity
  8
AM_7
  6
CENTER
 62
     4
100
AcDbLine
 10
31.27217464922296
 20
-34.88034778608618
 30
0.0
 11
31.27217464922296
 21
-60.88034778608618
 31
0.0
  0
LINE
  5
E7
330
1F
100
AcDbEntity
  8
AM_7
  6
CENTER
 62
     4
100
AcDbLine
 10
51.27217464922307
 20
-24.88034778608616
 30
0.0
 11
51.27217464922307
 21
-70.88034778608618
 31
0.0
  0
LINE
  5
E8
330
1F
100
AcDbEntity
  8
AM_7
  6
CENTER
 62
     4
100
AcDbLine
 10
51.27217464922307
 20
4.990766161714021
 30
0.0
 11
51.27217464922307
 21
64.99076616171402
 31
0.0
  0
LINE
  5
E9
330
1F
100
AcDbEntity
  8
AM_7
  6
CENTER
 62
     4
100
AcDbLine
 10
22.27217464922296
 20
38.67884971678063
 30
0.0
 11
80.27217464922285
 21
38.67884971678063
 31
0.0
  0
LINE
  5
EA
330
1F
100
AcDbEntity
  8
AM_7
  6
CENTER
 62
     4
100
AcDbLine
 10
-69.72782535077704
 20
-34.88034778608618
 30
0.0
 11
-69.72782535077704
 21
-60.88034778608618
 31
0.0
  0
LINE
  5
EB
330
1F
100
AcDbEntity
  8
AM_7
  6
CENTER
 62
     4
100
AcDbLine
 10
71.27217464922307
 20
4.990766161714021
 30
0.0
 11
71.27217464922307
 21
64.99076616171402
 31
0.0
  0
LINE
  5
EC
330
1F
100
AcDbEntity
  8
AM_7
  6
CENTER
 62
     4
100
AcDbLine
 10
31.27217464922296
 20
4.990766161714021
 30
0.0
 11
31.27217464922296
 21
64.99076616171402
 31
0.0
  0
LINE
  5
ED
330
1F
100
AcDbEntity
  8
AM_7
  6
CENTER
 62
     4
100
AcDbLine
 10
-91.72782535077704
 20
-27.88034778608628
 30
0.0
 11
-91.72782535077704
 21
-85.76484222715264
 31
0.0
  0
LINE
  5
EE
330
1F
100
AcDbEntity
  8
AM_7
  6
CENTER
 62
     4
100
AcDbLine
 10
-91.72782535077704
 20
78.53752198527974
 30
0.0
 11
-91.72782535077704
 21
21.79076616171403
 31
0.0
  0
LINE
  5
EF
330
1F
100
AcDbEntity
  8
AM_7
  6
CENTER
 62
     4
100
AcDbLine
 10
-54.72782535077724
 20
-35.88034778608618
 30
0.0
 11
-54.72782535077704
 21
-59.88034778608618
 31
0.0
  0
LINE
  5
F0
330
1F
100
AcDbEntity
  8
AM_7
  6
CENTER
 62
     4
100
AcDbLine
 10
-54.72782535077704
 20
42.29076616171403
 30
0.0
 11
-54.72782535077704
 21
4.290766161714032
 31
0.0
  0
LINE
  5
F1
330
1F
100
AcDbEntity
  8
AM_0
  6
CONTINUOUS
 62
     7
100
AcDbLine
 10
-69.72782535077704
 20
-56.88034778608618
 30
0.0
 11
71.27217464922307
 21
-56.88034778608618
 31
0.0
  0
LINE
  5
F2
330
1F
100
AcDbEntity
  8
AM_0
  6
CONTINUOUS
 62
     7
100
AcDbLine
 10
-69.72782535077704
 20
-38.88034778608618
 30
0.0
 11
71.27217464922307
 21
-38.88034778608618
 31
0.0
  0
ARC
  5
F3
330
1F
100
AcDbEntity
  8
AM_0
  6
CONTINUOUS
 62
     7
100
AcDbCircle
 10
71.27217464922307
 20
-47.88034778608628
 30
0.0
 40
9.0
100
AcDbArc
 50
270.0
 51
90.0
  0
ARC
  5
F4
330
1F
100
AcDbEntity
  8
AM_0
  6
CONTINUOUS
 62
     7
100
AcDbCircle
 10
-69.72782535077704
 20
-47.88034778608628
 30
0.0
 40
9.0
100
AcDbArc
 50
90.0
 51
270.0
  0
LINE
  5
F5
330
1F
100
AcDbEntity
  8
AM_0
  6
CONTINUOUS
 62
     7
100
AcDbLine
 10
80.27217464922307
 20
14.29076616171392
 30
0.0
 11
-78.72782535077704
 21
14.29076616171392
 31
0.0
  0
LINE
  5
F6
330
1F
100
AcDbEntity
  8
AM_0
  6
CONTINUOUS
 62
     7
100
AcDbLine
 10
80.27217464922307
 20
16.79076616171403
 30
0.0
 11
-78.72782535077704
 21
16.79076616171403
 31
0.0
  0
LINE
  5
F7
330
1F
100
AcDbEntity
  8
AM_0
  6
CONTINUOUS
 62
     7
100
AcDbLine
 10
80.27217464922307
 20
14.29076616171392
 30
0.0
 11
80.27217464922307
 21
16.79076616171403
 31
0.0
  0
LINE
  5
F8
330
1F
100
AcDbEntity
  8
AM_0
  6
CONTINUOUS
 62
     7
100
AcDbLine
 10
-78.72782535077704
 20
14.29076616171392
 30
0.0
 11
-78.72782535077704
 21
16.79076616171403
 31
0.0
  0
LINE
  5
F9
330
1F
100
AcDbEntity
  8
AM_0
  6
CONTINUOUS
 62
     7
100
AcDbLine
 10
36.57217464922297
 20
14.29076616171392
 30
0.0
 11
25.97217464922306
 21
14.29076616171392
 31
0.0
  0
LINE
  5
FA
330
1F
100
AcDbEntity
  8
AM_0
  6
CONTINUOUS
 62
     7
100
AcDbLine
 10
35.27217464922325
 20
7.990766161714021
 30
0.0
 11
27.27217464922307
 21
7.990766161714021
 31
0.0
  0
LINE
  5
FB
330
1F
100
AcDbEntity
  8
AM_0
  6
CONTINUOUS
 62
     7
100
AcDbLine
 10
26.65337249570604
 20
8.348031751622017
 30
0.0
 11
26.65337249570604
 21
11.99076616171402
 31
0.0
  0
LINE
  5
FC
330
1F
100
AcDbEntity
  8
AM_0
  6
CONTINUOUS
 62
     7
100
AcDbLine
 10
28.96277357246453
 20
8.348031751622017
 30
0.0
 11
28.96277357246453
 21
11.99076616171402
 31
0.0
  0
LINE
  5
FD
330
1F
100
AcDbEntity
  8
AM_0
  6
CONTINUOUS
 62
     7
100
AcDbLine
 10
33.58157572598145
 20
8.348031751622017
 30
0.0
 11
33.58157572598145
 21
11.99076616171402
 31
0.0
  0
LINE
  5
FE
330
1F
100
AcDbEntity
  8
AM_0
  6
CONTINUOUS
 62
     7
100
AcDbLine
 10
25.97217464922306
 20
13.29076616171392
 30
0.0
 11
25.97217464922306
 21
14.29076616171392
 31
0.0
  0
LINE
  5
FF
330
1F
100
AcDbEntity
  8
AM_0
  6
CONTINUOUS
 62
     7
100
AcDbLine
 10
27.27217464922307
 20
7.990766161714021
 30
0.0
 11
26.65337249570604
 21
8.348031751622017
 31
0.0
  0
ARC
  5
100
330
1F
100
AcDbEntity
  8
AM_0
  6
CONTINUOUS
 62
     7
100
AcDbCircle
 10
31.27217464922313
 20
15.63350057180793
 30
0.0
 40
7.642734410093918
100
AcDbArc
 50
252.412046226009
 51
287.5879537739842
  0
ARC
  5
101
330
1F
100
AcDbEntity
  8
AM_0
  6
CONTINUOUS
 62
     7
100
AcDbCircle
 10
27.80807303408545
 20
10.03542436045254
 30
0.0
 40
2.044658198738654
100
AcDbArc
 50
235.6157525319533
 51
304.38424746803
  0
LINE
  5
102
330
1F
100
AcDbEntity
  8
AM_0
  6
CONTINUOUS
 62
     7
100
AcDbLine
 10
35.89097680274023
 20
8.348031751622017
 30
0.0
 11
35.89097680274023
 21
11.99076616171402
 31
0.0
  0
LINE
  5
103
330
1F
100
AcDbEntity
  8
AM_0
  6
CONTINUOUS
 62
     7
100
AcDbLine
 10
35.27217464922325
 20
7.990766161714021
 30
0.0
 11
35.89097680274023
 21
8.348031751622017
 31
0.0
  0
ARC
  5
104
330
1F
100
AcDbEntity
  8
AM_0
  6
CONTINUOUS
 62
     7
100
AcDbCircle
 10
34.73627626436036
 20
10.03542436045254
 30
0.0
 40
2.044658198738654
100
AcDbArc
 50
235.6157525319626
 51
304.3842474680392
  0
CIRCLE
  5
105
330
1F
100
AcDbEntity
  8
AM_0
  6
CONTINUOUS
 62
     7
100
AcDbCircle
 10
71.27217464922307
 20
-47.88034778608628
 30
0.0
 40
4.0
  0
CIRCLE
  5
106
330
1F
100
AcDbEntity
  8
AM_0
  6
CONTINUOUS
 62
     7
100
AcDbCircle
 10
71.27217464922307
 20
-47.88034778608628
 30
0.0
 40
5.299999999999998
  0
CIRCLE
  5
107
330
1F
100
AcDbEntity
  8
AM_0
  6
CONTINUOUS
 62
     7
100
AcDbCircle
 10
31.27217464922296
 20
-47.88034778608628
 30
0.0
 40
4.0
  0
CIRCLE
  5
108
330
1F
100
AcDbEntity
  8
AM_0
  6
CONTINUOUS
 62
     7
100
AcDbCircle
 10
31.27217464922296
 20
-47.88034778608628
 30
0.0
 40
5.299999999999998
  0
LINE
  5
109
330
1F
100
AcDbEntity
  8
AM_0
  6
CONTINUOUS
 62
     7
100
AcDbLine
 10
80.27217464922307
 20
16.79076616171403
 30
0.0
 11
80.27217464922307
 21
35.79076616171403
 31
0.0
  0
LINE
  5
10A
330
1F
100
AcDbEntity
  8
AM_0
  6
CONTINUOUS
 62
     7
100
AcDbLine
 10
74.27217464922307
 20
35.79076616171403
 30
0.0
 11
74.27217464922307
 21
41.56693327184723
 31
0.0
  0
LINE
  5
10B
330
1F
100
AcDbEntity
  8
AM_0
  6
CONTINUOUS
 62
     7
100
AcDbLine
 10
37.27217464922307
 20
35.79076616171403
 30
0.0
 11
22.27217464922307
 21
35.79076616171403
 31
0.0
  0
LINE
  5
10C
330
1F
100
AcDbEntity
  8
AM_0
  6
CONTINUOUS
 62
     7
100
AcDbLine
 10
80.27217464922307
 20
16.79076616171403
 30
0.0
 11
22.27217464922307
 21
16.79076616171403
 31
0.0
  0
LINE
  5
10D
330
1F
100
AcDbEntity
  8
AM_0
  6
CONTINUOUS
 62
     7
100
AcDbLine
 10
22.27217464922307
 20
16.79076616171403
 30
0.0
 11
22.27217464922307
 21
35.79076616171403
 31
0.0
  0
LINE
  5
10E
330
1F
100
AcDbEntity
  8
AM_0
  6
CONTINUOUS
 62
     7
100
AcDbLine
 10
65.27217464922307
 20
35.79076616171403
 30
0.0
 11
80.27217464922307
 21
35.79076616171403
 31
0.0
  0
LINE
  5
10F
330
1F
100
AcDbEntity
  8
AM_0
  6
CONTINUOUS
 62
     7
100
AcDbLine
 10
65.27217464922307
 20
35.79076616171403
 30
0.0
 11
51.27217464922307
 21
26.79076616171403
 31
0.0
  0
LINE
  5
110
330
1F
100
AcDbEntity
  8
AM_0
  6
CONTINUOUS
 62
     7
100
AcDbLine
 10
37.27217464922307
 20
35.79076616171403
 30
0.0
 11
51.27217464922307
 21
26.79076616171403
 31
0.0
  0
LINE
  5
111
330
1F
100
AcDbEntity
  8
AM_0
  6
CONTINUOUS
 62
     7
100
AcDbLine
 10
68.27217464922307
 20
35.79076616171403
 30
0.0
 11
68.27217464922307
 21
41.56693327184723
 31
0.0
  0
LINE
  5
112
330
1F
100
AcDbEntity
  8
AM_0
  6
CONTINUOUS
 62
     7
100
AcDbLine
 10
28.27217464922307
 20
35.79076616171403
 30
0.0
 11
28.27217464922307
 21
41.56693327184723
 31
0.0
  0
LINE
  5
113
330
1F
100
AcDbEntity
  8
AM_0
  6
CONTINUOUS
 62
     7
100
AcDbLine
 10
34.27217464922307
 20
35.79076616171403
 30
0.0
 11
34.27217464922307
 21
41.56693327184723
 31
0.0
  0
ARC
  5
114
330
1F
100
AcDbEntity
  8
AM_0
  6
CONTINUOUS
 62
     7
100
AcDbCircle
 10
-36.72782535077704
 20
-47.88034778608628
 30
0.0
 40
2.5
100
AcDbArc
 50
270.0
 51
90.0
  0
LINE
  5
115
330
1F
100
AcDbEntity
  8
AM_0
  6
CONTINUOUS
 62
     7
100
AcDbLine
 10
-36.72782535077704
 20
-45.38034778608618
 30
0.0
 11
-69.72782535077704
 21
-45.38034778608618
 31
0.0
  0
LINE
  5
116
330
1F
100
AcDbEntity
  8
AM_0
  6
CONTINUOUS
 62
     7
100
AcDbLine
 10
-36.72782535077704
 20
-50.38034778608618
 30
0.0
 11
-69.72782535077704
 21
-50.38034778608618
 31
0.0
  0
ARC
  5
117
330
1F
100
AcDbEntity
  8
AM_0
  6
CONTINUOUS
 62
     7
100
AcDbCircle
 10
-69.72782535077704
 20
-47.88034778608628
 30
0.0
 40
2.5
100
AcDbArc
 50
90.0
 51
270.0
  0
LINE
  5
118
330
1F
100
AcDbEntity
  8
AM_0
  6
CONTINUOUS
 62
     7
100
AcDbLine
 10
22.27217464922307
 20
-50.88034778608618
 30
0.0
 11
22.27217464922307
 21
-44.88034778608618
 31
0.0
  0
LINE
  5
119
330
1F
100
AcDbEntity
  8
AM_0
  6
CONTINUOUS
 62
     7
100
AcDbLine
 10
36.57217464922297
 20
13.29076616171392
 30
0.0
 11
25.97217464922306
 21
13.29076616171392
 31
0.0
  0
LINE
  5
11A
330
1F
100
AcDbEntity
  8
AM_0
  6
CONTINUOUS
 62
     7
100
AcDbLine
 10
35.89097680274023
 20
11.99076616171402
 30
0.0
 11
26.65337249570604
 21
11.99076616171402
 31
0.0
  0
LINE
  5
11B
330
1F
100
AcDbEntity
  8
AM_0
  6
CONTINUOUS
 62
     7
100
AcDbLine
 10
26.67217464922305
 20
13.29076616171392
 30
0.0
 11
26.67217464922305
 21
11.99076616171402
 31
0.0
  0
LINE
  5
11C
330
1F
100
AcDbEntity
  8
AM_0
  6
CONTINUOUS
 62
     7
100
AcDbLine
 10
31.01217464922303
 20
11.99076616171402
 30
0.0
 11
30.53901334467696
 21
13.29076616171392
 31
0.0
  0
LINE
  5
11D
330
1F
100
AcDbEntity
  8
AM_0
  6
CONTINUOUS
 62
     7
100
AcDbLine
 10
31.53217464922307
 20
11.99076616171402
 30
0.0
 11
31.05901334467694
 21
13.29076616171392
 31
0.0
  0
LINE
  5
11E
330
1F
100
AcDbEntity
  8
AM_0
  6
CONTINUOUS
 62
     7
100
AcDbLine
 10
35.87217464922304
 20
11.99076616171402
 30
0.0
 11
35.87217464922304
 21
13.29076616171392
 31
0.0
  0
LINE
  5
11F
330
1F
100
AcDbEntity
  8
AM_0
  6
CONTINUOUS
 62
     7
100
AcDbLine
 10
36.57217464922297
 20
13.29076616171392
 30
0.0
 11
36.57217464922297
 21
14.29076616171392
 31
0.0
  0
LINE
  5
120
330
1F
100
AcDbEntity
  8
AM_0
  6
CONTINUOUS
 62
     7
100
AcDbLine
 10
76.57217464922297
 20
14.29076616171392
 30
0.0
 11
65.97217464922295
 21
14.29076616171392
 31
0.0
  0
LINE
  5
121
330
1F
100
AcDbEntity
  8
AM_0
  6
CONTINUOUS
 62
     7
100
AcDbLine
 10
75.27217464922336
 20
7.990766161714021
 30
0.0
 11
67.27217464922307
 21
7.990766161714021
 31
0.0
  0
LINE
  5
122
330
1F
100
AcDbEntity
  8
AM_0
  6
CONTINUOUS
 62
     7
100
AcDbLine
 10
66.65337249570604
 20
8.348031751622017
 30
0.0
 11
66.65337249570604
 21
11.99076616171402
 31
0.0
  0
LINE
  5
123
330
1F
100
AcDbEntity
  8
AM_0
  6
CONTINUOUS
 62
     7
100
AcDbLine
 10
68.96277357246453
 20
8.348031751622017
 30
0.0
 11
68.96277357246453
 21
11.99076616171402
 31
0.0
  0
LINE
  5
124
330
1F
100
AcDbEntity
  8
AM_0
  6
CONTINUOUS
 62
     7
100
AcDbLine
 10
73.58157572598145
 20
8.348031751622017
 30
0.0
 11
73.58157572598145
 21
11.99076616171402
 31
0.0
  0
LINE
  5
125
330
1F
100
AcDbEntity
  8
AM_0
  6
CONTINUOUS
 62
     7
100
AcDbLine
 10
65.97217464922295
 20
13.29076616171392
 30
0.0
 11
65.97217464922295
 21
14.29076616171392
 31
0.0
  0
LINE
  5
126
330
1F
100
AcDbEntity
  8
AM_0
  6
CONTINUOUS
 62
     7
100
AcDbLine
 10
67.27217464922307
 20
7.990766161714021
 30
0.0
 11
66.65337249570604
 21
8.348031751622017
 31
0.0
  0
ARC
  5
127
330
1F
100
AcDbEntity
  8
AM_0
  6
CONTINUOUS
 62
     7
100
AcDbCircle
 10
71.27217464922325
 20
15.63350057180793
 30
0.0
 40
7.642734410093918
100
AcDbArc
 50
252.412046226009
 51
287.5879537739842
  0
ARC
  5
128
330
1F
100
AcDbEntity
  8
AM_0
  6
CONTINUOUS
 62
     7
100
AcDbCircle
 10
67.80807303408545
 20
10.03542436045254
 30
0.0
 40
2.044658198738654
100
AcDbArc
 50
235.6157525319533
 51
304.38424746803
  0
LINE
  5
129
330
1F
100
AcDbEntity
  8
AM_0
  6
CONTINUOUS
 62
     7
100
AcDbLine
 10
75.89097680274023
 20
8.348031751622017
 30
0.0
 11
75.89097680274023
 21
11.99076616171402
 31
0.0
  0
LINE
  5
12A
330
1F
100
AcDbEntity
  8
AM_0
  6
CONTINUOUS
 62
     7
100
AcDbLine
 10
75.27217464922336
 20
7.990766161714021
 30
0.0
 11
75.89097680274023
 21
8.348031751622017
 31
0.0
  0
ARC
  5
12B
330
1F
100
AcDbEntity
  8
AM_0
  6
CONTINUOUS
 62
     7
100
AcDbCircle
 10
74.73627626436036
 20
10.03542436045254
 30
0.0
 40
2.044658198738654
100
AcDbArc
 50
235.6157525319626
 51
304.3842474680392
  0
LINE
  5
12C
330
1F
100
AcDbEntity
  8
AM_0
  6
CONTINUOUS
 62
     7
100
AcDbLine
 10
76.57217464922297
 20
13.29076616171392
 30
0.0
 11
65.97217464922295
 21
13.29076616171392
 31
0.0
  0
LINE
  5
12D
330
1F
100
AcDbEntity
  8
AM_0
  6
CONTINUOUS
 62
     7
100
AcDbLine
 10
75.89097680274023
 20
11.99076616171402
 30
0.0
 11
66.65337249570604
 21
11.99076616171402
 31
0.0
  0
LINE
  5
12E
330
1F
100
AcDbEntity
  8
AM_0
  6
CONTINUOUS
 62
     7
100
AcDbLine
 10
74.27217464922307
 20
61.99076616171402
 30
0.0
 11
68.27217464922307
 21
61.99076616171402
 31
0.0
  0
LINE
  5
12F
330
1F
100
AcDbEntity
  8
AM_0
  6
CONTINUOUS
 62
     7
100
AcDbLine
 10
66.67217464922305
 20
13.29076616171392
 30
0.0
 11
66.67217464922305
 21
11.99076616171402
 31
0.0
  0
LINE
  5
130
330
1F
100
AcDbEntity
  8
AM_0
  6
CONTINUOUS
 62
     7
100
AcDbLine
 10
71.01217464922303
 20
11.99076616171402
 30
0.0
 11
70.53901334467696
 21
13.29076616171392
 31
0.0
  0
LINE
  5
131
330
1F
100
AcDbEntity
  8
AM_0
  6
CONTINUOUS
 62
     7
100
AcDbLine
 10
71.53217464922307
 20
11.99076616171402
 30
0.0
 11
71.05901334467694
 21
13.29076616171392
 31
0.0
  0
LINE
  5
132
330
1F
100
AcDbEntity
  8
AM_0
  6
CONTINUOUS
 62
     7
100
AcDbLine
 10
75.87217464922304
 20
11.99076616171402
 30
0.0
 11
75.87217464922304
 21
13.29076616171392
 31
0.0
  0
LINE
  5
133
330
1F
100
AcDbEntity
  8
AM_0
  6
CONTINUOUS
 62
     7
100
AcDbLine
 10
76.57217464922297
 20
13.29076616171392
 30
0.0
 11
76.57217464922297
 21
14.29076616171392
 31
0.0
  0
LINE
  5
134
330
1F
100
AcDbEntity
  8
AM_0
  6
CONTINUOUS
 62
     7
100
AcDbLine
 10
80.27217464922307
 20
60.56693327184723
 30
0.0
 11
80.27217464922307
 21
41.56693327184723
 31
0.0
  0
LINE
  5
135
330
1F
100
AcDbEntity
  8
AM_0
  6
CONTINUOUS
 62
     7
100
AcDbLine
 10
37.27217464922307
 20
41.56693327184723
 30
0.0
 11
22.27217464922307
 21
41.56693327184723
 31
0.0
  0
LINE
  5
136
330
1F
100
AcDbEntity
  8
AM_0
  6
CONTINUOUS
 62
     7
100
AcDbLine
 10
22.27217464922307
 20
60.56693327184723
 30
0.0
 11
22.27217464922307
 21
41.56693327184723
 31
0.0
  0
LINE
  5
137
330
1F
100
AcDbEntity
  8
AM_0
  6
CONTINUOUS
 62
     7
100
AcDbLine
 10
65.27217464922307
 20
41.56693327184723
 30
0.0
 11
80.27217464922307
 21
41.56693327184723
 31
0.0
  0
LINE
  5
138
330
1F
100
AcDbEntity
  8
AM_0
  6
CONTINUOUS
 62
     7
100
AcDbLine
 10
65.27217464922307
 20
41.56693327184723
 30
0.0
 11
51.27217464922307
 21
50.56693327184723
 31
0.0
  0
LINE
  5
139
330
1F
100
AcDbEntity
  8
AM_0
  6
CONTINUOUS
 62
     7
100
AcDbLine
 10
37.27217464922307
 20
41.56693327184723
 30
0.0
 11
51.27217464922307
 21
50.56693327184723
 31
0.0
  0
LINE
  5
13A
330
1F
100
AcDbEntity
  8
AM_0
  6
CONTINUOUS
 62
     7
100
AcDbLine
 10
22.27217464922307
 20
60.56693327184723
 30
0.0
 11
80.27217464922307
 21
60.56693327184723
 31
0.0
  0
LINE
  5
13B
330
1F
100
AcDbEntity
  8
AM_0
  6
CONTINUOUS
 62
     7
100
AcDbLine
 10
27.27217464922307
 20
60.56693327184723
 30
0.0
 11
27.27217464922307
 21
41.56693327184723
 31
0.0
  0
LINE
  5
13C
330
1F
100
AcDbEntity
  8
AM_0
  6
CONTINUOUS
 62
     7
100
AcDbLine
 10
75.27217464922307
 20
60.56693327184723
 30
0.0
 11
75.27217464922307
 21
41.56693327184723
 31
0.0
  0
LINE
  5
13D
330
1F
100
AcDbEntity
  8
AM_0
  6
CONTINUOUS
 62
     7
100
AcDbLine
 10
27.27217464922307
 20
16.79076616171403
 30
0.0
 11
27.27217464922307
 21
35.79076616171403
 31
0.0
  0
LINE
  5
13E
330
1F
100
AcDbEntity
  8
AM_0
  6
CONTINUOUS
 62
     7
100
AcDbLine
 10
75.27217464922307
 20
16.79076616171403
 30
0.0
 11
75.27217464922307
 21
35.79076616171403
 31
0.0
  0
LINE
  5
13F
330
1F
100
AcDbEntity
  8
AM_0
  6
CONTINUOUS
 62
     7
100
AcDbLine
 10
71.27217464922307
 20
-38.88034778608618
 30
0.0
 11
75.27217464922307
 21
-38.88034778608618
 31
0.0
  0
LINE
  5
140
330
1F
100
AcDbEntity
  8
AM_0
  6
CONTINUOUS
 62
     7
100
AcDbLine
 10
80.27217464922307
 20
-51.88034778608628
 30
0.0
 11
80.27217464922307
 21
-43.88034778608618
 31
0.0
  0
LINE
  5
141
330
1F
100
AcDbEntity
  8
AM_0
  6
CONTINUOUS
 62
     7
100
AcDbLine
 10
75.27217464922307
 20
-38.88034778608618
 30
0.0
 11
80.27217464922307
 21
-43.88034778608618
 31
0.0
  0
LINE
  5
142
330
1F
100
AcDbEntity
  8
AM_0
  6
CONTINUOUS
 62
     7
100
AcDbLine
 10
75.27217464922307
 20
-56.88034778608622
 30
0.0
 11
80.27217464922307
 21
-51.88034778608628
 31
0.0
  0
LINE
  5
143
330
1F
100
AcDbEntity
  8
AM_0
  6
CONTINUOUS
 62
     7
100
AcDbLine
 10
71.27217464922307
 20
-56.88034778608618
 30
0.0
 11
75.27217464922307
 21
-56.88034778608622
 31
0.0
  0
LINE
  5
144
330
1F
100
AcDbEntity
  8
AM_0
  6
CONTINUOUS
 62
     7
100
AcDbLine
 10
74.27217464922307
 20
60.56693327184723
 30
0.0
 11
74.27217464922307
 21
61.99076616171402
 31
0.0
  0
LINE
  5
145
330
1F
100
AcDbEntity
  8
AM_0
  6
CONTINUOUS
 62
     7
100
AcDbLine
 10
68.27217464922307
 20
60.56693327184723
 30
0.0
 11
68.27217464922307
 21
61.99076616171402
 31
0.0
  0
LINE
  5
146
330
1F
100
AcDbEntity
  8
AM_0
  6
CONTINUOUS
 62
     7
100
AcDbLine
 10
28.27217464922307
 20
61.99076616171402
 30
0.0
 11
34.27217464922307
 21
61.99076616171402
 31
0.0
  0
LINE
  5
147
330
1F
100
AcDbEntity
  8
AM_0
  6
CONTINUOUS
 62
     7
100
AcDbLine
 10
28.27217464922307
 20
60.56693327184723
 30
0.0
 11
28.27217464922307
 21
61.99076616171402
 31
0.0
  0
LINE
  5
148
330
1F
100
AcDbEntity
  8
AM_0
  6
CONTINUOUS
 62
     7
100
AcDbLine
 10
34.27217464922307
 20
60.56693327184723
 30
0.0
 11
34.27217464922307
 21
61.99076616171402
 31
0.0
  0
LINE
  5
149
330
1F
100
AcDbEntity
  8
AM_0
  6
CONTINUOUS
 62
     7
100
AcDbLine
 10
-25.72782535077695
 20
-44.88034778608618
 30
0.0
 11
26.90296419423225
 21
-44.88034778608618
 31
0.0
  0
ARC
  5
14A
330
1F
100
AcDbEntity
  8
AM_0
  6
CONTINUOUS
 62
     7
100
AcDbCircle
 10
-25.72782535077695
 20
-47.88034778608628
 30
0.0
 40
3.0
100
AcDbArc
 50
90.0
 51
270.0
  0
LINE
  5
14B
330
1F
100
AcDbEntity
  8
AM_0
  6
CONTINUOUS
 62
     7
100
AcDbLine
 10
-25.72782535077695
 20
-50.88034778608618
 30
0.0
 11
26.90296419423225
 21
-50.88034778608618
 31
0.0
  0
LINE
  5
14C
330
1F
100
AcDbEntity
  8
AM_0
  6
CONTINUOUS
 62
     7
100
AcDbLine
 10
35.64138510421367
 20
-44.88034778608618
 30
0.0
 11
66.90296419423237
 21
-44.88034778608618
 31
0.0
  0
LINE
  5
14D
330
1F
100
AcDbEntity
  8
AM_0
  6
CONTINUOUS
 62
     7
100
AcDbLine
 10
35.64138510421373
 20
-50.88034778608618
 30
0.0
 11
66.90296419423225
 21
-50.88034778608618
 31
0.0
  0
INSERT
  5
14E
330
1F
100
AcDbEntity
  8
AM_0
  6
CONTINUOUS
100
AcDbBlockReference
  2
DC_GROUP_1
 10
0.0
 20
0.0
 30
0.0
  0
INSERT
  5
14F
330
1F
100
AcDbEntity
  8
AM_0
  6
CONTINUOUS
100
AcDbBlockReference
  2
DC_GROUP_2
 10
0.0
 20
0.0
 30
0.0
  0
DIMENSION
  5
150
330
1F
100
AcDbEntity
  8
AM_5
  6
CONTINUOUS
100
AcDbDimension
  2
*D3
 10
59.99534742039491
 20
33.78944721705879
 30
0.0
 11
47.01089061039938
 21
41.06733076352823
 31
0.0
 70
   163
  1
φ20
  3
DC_DIAM01
100
AcDbDiametricDimension
 15
42.54900187805124
 25
43.56825221650248
 35
0.0
 40
0.0
1001
ACAD
1000
DSTYLE
1002
{
1070
   287
1070
     1
1070
     7
1000
OPEN30
1070
     6
1000
OPEN30
1070
   144
1040
1.0
1070
   274
1070
     4
1070
    41
1040
0.5000268816947937
1070
   289
1070
     1
1070
    79
1070
     2
1070
   176
1070
     3
1070
   177
1070
     7
1070
   178
1070
     2
1070
   271
1070
     3
1070
    44
1040
0.25
1070
    42
1040
0.25
1070
   147
1040
1.499999999999995
1070
   173
1070
     1
1070
    77
1070
     3
1070
    73
1070
     0
1070
   172
1070
     1
1070
    74
1070
     0
1070
   283
1070
     0
1070
   340
1005
DB
1070
   140
1040
3.5
1070
   284
1070
     8
1070
   288
1070
     1
1070
    78
1070
     8
1070
    90
1070
     1
1002
}
  0
INSERT
  5
152
330
1F
100
AcDbEntity
  8
AM_0
  6
CONTINUOUS
100
AcDbBlockReference
  2
DC_GROUP_3
 10
0.0
 20
0.0
 30
0.0
  0
CIRCLE
  5
153
330
1F
100
AcDbEntity
  8
AM_11
  6
CENTER
 62
     3
100
AcDbCircle
 10
51.27217464922307
 20
38.67884971678063
 30
0.0
 40
10.0
  0
LINE
  5
154
330
1F
100
AcDbEntity
  8
AM_11
  6
CENTER
 62
     3
100
AcDbLine
 10
-69.22782535077704
 20
-76.88034778608623
 30
0.0
 11
-56.72782535077715
 21
-76.88034778608623
 31
0.0
  0
LINE
  5
155
330
1F
100
AcDbEntity
  8
AM_11
  6
CENTER
 62
     3
100
AcDbLine
 10
-115.838918980612
 20
-32.88034778608628
 30
0.0
 11
-67.61673172094186
 21
-32.88034778608628
 31
0.0
  0
LINE
  5
156
330
1F
100
AcDbEntity
  8
AM_11
  6
CENTER
 62
     3
100
AcDbLine
 10
-56.72782535077715
 20
-85.76484222715264
 30
0.0
 11
-56.72782535077715
 21
-76.88034778608623
 31
0.0
  0
LINE
  5
157
330
1F
100
AcDbEntity
  8
AM_11
  6
CENTER
 62
     3
100
AcDbLine
 10
-58.31873444168616
 20
-56.88034778608615
 30
0.0
 11
-56.72782535077715
 21
-76.88034778608623
 31
0.0
  0
ARC
  5
158
330
1F
100
AcDbEntity
  8
AM_11
  6
CENTER
 62
     3
100
AcDbCircle
 10
-67.61673172094186
 20
-40.88034778608628
 30
0.0
 40
8.0
100
AcDbArc
 50
14.47751218592991
 51
90.0
  0
LINE
  5
159
330
1F
100
AcDbEntity
  8
AM_11
  6
CENTER
 62
     3
100
AcDbLine
 10
-70.81873444168616
 20
-56.88034778608615
 30
0.0
 11
-69.22782535077704
 21
-76.88034778608623
 31
0.0
  0
ARC
  5
15A
330
1F
100
AcDbEntity
  8
AM_11
  6
CENTER
 62
     3
100
AcDbCircle
 10
-80.11673172094186
 20
-40.88034778608628
 30
0.0
 40
8.0
100
AcDbArc
 50
14.47751218592991
 51
90.0
  0
LINE
  5
15B
330
1F
100
AcDbEntity
  8
AM_11
  6
CENTER
 62
     3
100
AcDbLine
 10
-114.2278253507771
 20
-76.88034778608623
 30
0.0
 11
-126.7278253507771
 21
-76.88034778608623
 31
0.0
  0
LINE
  5
15C
330
1F
100
AcDbEntity
  8
AM_11
  6
CENTER
 62
     3
100
AcDbLine
 10
-123.8137285443946
 20
-40.24598793442178
 30
0.0
 11
-126.7278253507771
 21
-76.88034778608623
 31
0.0
  0
ARC
  5
15D
330
1F
100
AcDbEntity
  8
AM_11
  6
CENTER
 62
     3
100
AcDbCircle
 10
-115.838918980612
 20
-40.88034778608628
 30
0.0
 40
8.0
100
AcDbArc
 50
90.0
 51
175.451957590877
  0
LINE
  5
15E
330
1F
100
AcDbEntity
  8
AM_11
  6
CENTER
 62
     3
100
AcDbLine
 10
-111.7278253507771
 20
-45.45177635751547
 30
0.0
 11
-114.2278253507771
 21
-76.88034778608623
 31
0.0
  0
ARC
  5
15F
330
1F
100
AcDbEntity
  8
AM_11
  6
CENTER
 62
     3
100
AcDbCircle
 10
-103.338918980612
 20
-40.88034778608628
 30
0.0
 40
8.0
100
AcDbArc
 50
90.0
 51
165.5224878140701
  0
LINE
  5
160
330
1F
100
AcDbEntity
  8
AM_11
  6
CENTER
 62
     3
100
AcDbLine
 10
-126.7278253507771
 20
-85.76484222715264
 30
0.0
 11
-126.7278253507771
 21
-76.88034778608623
 31
0.0
  0
ARC
  5
161
330
1F
100
AcDbEntity
  8
AM_11
  6
CENTER
 62
     3
100
AcDbCircle
 10
-91.72782535077704
 20
-47.88034778608628
 30
0.0
 40
31.0
100
AcDbArc
 50
224.9599588361231
 51
315.0400411638768
  0
LINE
  5
162
330
1F
100
AcDbEntity
  8
AM_11
  6
CENTER
 62
     3
100
AcDbLine
 10
-126.7278253507771
 20
44.29076616171392
 30
0.0
 11
-56.72782535077715
 21
44.29076616171392
 31
0.0
  0
LINE
  5
163
330
1F
100
AcDbEntity
  8
AM_11
  6
CENTER
 62
     3
100
AcDbLine
 10
-126.7278253507771
 20
44.29076616171392
 30
0.0
 11
-126.7278253507771
 21
73.53752198527974
 31
0.0
  0
LINE
  5
164
330
1F
100
AcDbEntity
  8
AM_11
  6
CENTER
 62
     3
100
AcDbLine
 10
-56.72782535077715
 20
44.29076616171392
 30
0.0
 11
-56.72782535077715
 21
73.53752198527974
 31
0.0
  0
LINE
  5
165
330
1F
100
AcDbEntity
  8
AM_11
  6
CENTER
 62
     3
100
AcDbLine
 10
-114.2278253507771
 20
70.79076616171403
 30
0.0
 11
-114.2278253507771
 21
44.29076616171392
 31
0.0
  0
LINE
  5
166
330
1F
100
AcDbEntity
  8
AM_11
  6
CENTER
 62
     3
100
AcDbLine
 10
-126.7278253507771
 20
70.79076616171403
 30
0.0
 11
-103.338918980612
 21
70.79076616171403
 31
0.0
  0
LINE
  5
167
330
1F
100
AcDbEntity
  8
AM_11
  6
CENTER
 62
     3
100
AcDbLine
 10
-103.338918980612
 20
44.29076616171392
 30
0.0
 11
-103.338918980612
 21
70.79076616171403
 31
0.0
  0
LINE
  5
168
330
1F
100
AcDbEntity
  8
AM_11
  6
CENTER
 62
     3
100
AcDbLine
 10
-56.72782535077715
 20
70.79076616171403
 30
0.0
 11
-80.11673172094186
 21
70.79076616171403
 31
0.0
  0
LINE
  5
169
330
1F
100
AcDbEntity
  8
AM_11
  6
CENTER
 62
     3
100
AcDbLine
 10
-80.11673172094186
 20
44.29076616171392
 30
0.0
 11
-80.11673172094186
 21
70.79076616171403
 31
0.0
  0
LINE
  5
16A
330
1F
100
AcDbEntity
  8
AM_11
  6
CENTER
 62
     3
100
AcDbLine
 10
-69.22782535077704
 20
70.79076616171403
 30
0.0
 11
-69.22782535077704
 21
44.29076616171392
 31
0.0
  0
CIRCLE
  5
16B
330
1F
100
AcDbEntity
  8
AM_11
  6
CENTER
 62
     3
100
AcDbCircle
 10
-63.72782535077695
 20
65.79076616171403
 30
0.0
 40
2.75
  0
LINE
  5
16C
330
1F
100
AcDbEntity
  8
AM_11
  6
CENTER
 62
     3
100
AcDbLine
 10
-61.94562341216275
 20
66.04326616171403
 30
0.0
 11
-61.94562341216275
 21
65.53826616171392
 31
0.0
  0
LINE
  5
16D
330
1F
100
AcDbEntity
  8
AM_11
  6
CENTER
 62
     3
100
AcDbLine
 10
-65.51002728939125
 20
66.04326616171403
 30
0.0
 11
-65.51002728939125
 21
65.53826616171392
 31
0.0
  0
LINE
  5
16E
330
1F
100
AcDbEntity
  8
AM_11
  6
CENTER
 62
     3
100
AcDbLine
 10
-61.94562341216275
 20
66.04326616171403
 30
0.0
 11
-63.47532535077696
 21
66.04326616171403
 31
0.0
  0
LINE
  5
16F
330
1F
100
AcDbEntity
  8
AM_11
  6
CENTER
 62
     3
100
AcDbLine
 10
-63.98032535077704
 20
66.04326616171403
 30
0.0
 11
-65.51002728939125
 21
66.04326616171403
 31
0.0
  0
LINE
  5
170
330
1F
100
AcDbEntity
  8
AM_11
  6
CENTER
 62
     3
100
AcDbLine
 10
-63.98032535077704
 20
66.04326616171403
 30
0.0
 11
-63.98032535077704
 21
67.57296810032824
 31
0.0
  0
LINE
  5
171
330
1F
100
AcDbEntity
  8
AM_11
  6
CENTER
 62
     3
100
AcDbLine
 10
-63.47532535077696
 20
66.04326616171403
 30
0.0
 11
-63.47532535077696
 21
67.57296810032824
 31
0.0
  0
LINE
  5
172
330
1F
100
AcDbEntity
  8
AM_11
  6
CENTER
 62
     3
100
AcDbLine
 10
-63.98032535077704
 20
67.57296810032824
 30
0.0
 11
-63.47532535077696
 21
67.57296810032824
 31
0.0
  0
LINE
  5
173
330
1F
100
AcDbEntity
  8
AM_11
  6
CENTER
 62
     3
100
AcDbLine
 10
-61.94562341216275
 20
65.53826616171392
 30
0.0
 11
-63.47532535077696
 21
65.53826616171392
 31
0.0
  0
LINE
  5
174
330
1F
100
AcDbEntity
  8
AM_11
  6
CENTER
 62
     3
100
AcDbLine
 10
-63.98032535077704
 20
65.53826616171392
 30
0.0
 11
-65.51002728939125
 21
65.53826616171392
 31
0.0
  0
LINE
  5
175
330
1F
100
AcDbEntity
  8
AM_11
  6
CENTER
 62
     3
100
AcDbLine
 10
-63.47532535077696
 20
64.00856422309982
 30
0.0
 11
-63.47532535077696
 21
65.53826616171392
 31
0.0
  0
LINE
  5
176
330
1F
100
AcDbEntity
  8
AM_11
  6
CENTER
 62
     3
100
AcDbLine
 10
-63.98032535077704
 20
64.00856422309982
 30
0.0
 11
-63.98032535077704
 21
65.53826616171392
 31
0.0
  0
LINE
  5
177
330
1F
100
AcDbEntity
  8
AM_11
  6
CENTER
 62
     3
100
AcDbLine
 10
-63.98032535077704
 20
64.00856422309982
 30
0.0
 11
-63.47532535077696
 21
64.00856422309982
 31
0.0
  0
CIRCLE
  5
178
330
1F
100
AcDbEntity
  8
AM_11
  6
CENTER
 62
     3
100
AcDbCircle
 10
-63.72782535077695
 20
65.79076616171403
 30
0.0
 40
3.0
  0
CIRCLE
  5
179
330
1F
100
AcDbEntity
  8
AM_11
  6
CENTER
 62
     3
100
AcDbCircle
 10
-119.7278253507771
 20
65.79076616171403
 30
0.0
 40
2.75
  0
LINE
  5
17A
330
1F
100
AcDbEntity
  8
AM_11
  6
CENTER
 62
     3
100
AcDbLine
 10
-121.5100272893912
 20
66.04326616171403
 30
0.0
 11
-121.5100272893912
 21
65.53826616171392
 31
0.0
  0
LINE
  5
17B
330
1F
100
AcDbEntity
  8
AM_11
  6
CENTER
 62
     3
100
AcDbLine
 10
-117.9456234121628
 20
66.04326616171403
 30
0.0
 11
-117.9456234121628
 21
65.53826616171392
 31
0.0
  0
LINE
  5
17C
330
1F
100
AcDbEntity
  8
AM_11
  6
CENTER
 62
     3
100
AcDbLine
 10
-121.5100272893912
 20
66.04326616171403
 30
0.0
 11
-119.9803253507771
 21
66.04326616171403
 31
0.0
  0
LINE
  5
17D
330
1F
100
AcDbEntity
  8
AM_11
  6
CENTER
 62
     3
100
AcDbLine
 10
-119.4753253507769
 20
66.04326616171403
 30
0.0
 11
-117.9456234121628
 21
66.04326616171403
 31
0.0
  0
LINE
  5
17E
330
1F
100
AcDbEntity
  8
AM_11
  6
CENTER
 62
     3
100
AcDbLine
 10
-119.4753253507769
 20
66.04326616171403
 30
0.0
 11
-119.4753253507769
 21
67.57296810032824
 31
0.0
  0
LINE
  5
17F
330
1F
100
AcDbEntity
  8
AM_11
  6
CENTER
 62
     3
100
AcDbLine
 10
-119.9803253507771
 20
66.04326616171403
 30
0.0
 11
-119.9803253507771
 21
67.57296810032824
 31
0.0
  0
LINE
  5
180
330
1F
100
AcDbEntity
  8
AM_11
  6
CENTER
 62
     3
100
AcDbLine
 10
-119.4753253507769
 20
67.57296810032824
 30
0.0
 11
-119.9803253507771
 21
67.57296810032824
 31
0.0
  0
LINE
  5
181
330
1F
100
AcDbEntity
  8
AM_11
  6
CENTER
 62
     3
100
AcDbLine
 10
-121.5100272893912
 20
65.53826616171392
 30
0.0
 11
-119.9803253507771
 21
65.53826616171392
 31
0.0
  0
LINE
  5
182
330
1F
100
AcDbEntity
  8
AM_11
  6
CENTER
 62
     3
100
AcDbLine
 10
-119.4753253507769
 20
65.53826616171392
 30
0.0
 11
-117.9456234121628
 21
65.53826616171392
 31
0.0
  0
LINE
  5
183
330
1F
100
AcDbEntity
  8
AM_11
  6
CENTER
 62
     3
100
AcDbLine
 10
-119.9803253507771
 20
64.00856422309982
 30
0.0
 11
-119.9803253507771
 21
65.53826616171392
 31
0.0
  0
LINE
  5
184
330
1F
100
AcDbEntity
  8
AM_11
  6
CENTER
 62
     3
100
AcDbLine
 10
-119.4753253507769
 20
64.00856422309982
 30
0.0
 11
-119.4753253507769
 21
65.53826616171392
 31
0.0
  0
LINE
  5
185
330
1F
100
AcDbEntity
  8
AM_11
  6
CENTER
 62
     3
100
AcDbLine
 10
-119.4753253507769
 20
64.00856422309982
 30
0.0
 11
-119.9803253507771
 21
64.00856422309982
 31
0.0
  0
CIRCLE
  5
186
330
1F
100
AcDbEntity
  8
AM_11
  6
CENTER
 62
     3
100
AcDbCircle
 10
-119.7278253507771
 20
65.79076616171403
 30
0.0
 40
3.0
  0
LINE
  5
187
330
1F
100
AcDbEntity
  8
AM_11
  6
CENTER
 62
     3
100
AcDbLine
 10
-98.22782535077704
 20
41.29076616171403
 30
0.0
 11
-98.22782535077704
 21
44.29076616171392
 31
0.0
  0
LINE
  5
188
330
1F
100
AcDbEntity
  8
AM_11
  6
CENTER
 62
     3
100
AcDbLine
 10
-85.22782535077704
 20
41.29076616171403
 30
0.0
 11
-85.22782535077704
 21
44.29076616171392
 31
0.0
  0
LINE
  5
189
330
1F
100
AcDbEntity
  8
AM_11
  6
CENTER
 62
     3
100
AcDbLine
 10
-111.7278253507771
 20
-56.88034778608615
 30
0.0
 11
-111.7278253507771
 21
-38.88034778608618
 31
0.0
  0
LINE
  5
18A
330
1F
100
AcDbEntity
  8
AM_11
  6
CENTER
 62
     3
100
AcDbLine
 10
-46.72782535077704
 20
-45.38034778608608
 30
0.0
 11
-48.72782535077695
 21
-45.38034778608618
 31
0.0
  0
LINE
  5
18B
330
1F
100
AcDbEntity
  8
AM_11
  6
CENTER
 62
     3
100
AcDbLine
 10
-78.37363358367224
 20
-45.38034778608608
 30
0.0
 11
-79.72782535077704
 21
-45.38034778608608
 31
0.0
  0
LINE
  5
18C
330
1F
100
AcDbEntity
  8
AM_11
  6
CENTER
 62
     3
100
AcDbLine
 10
-69.72782535077704
 20
-56.88034778608615
 30
0.0
 11
-111.7278253507771
 21
-56.88034778608615
 31
0.0
  0
ARC
  5
18D
330
1F
100
AcDbEntity
  8
AM_11
  6
CENTER
 62
     3
100
AcDbCircle
 10
-46.72782535077695
 20
-47.88034778608608
 30
0.0
 40
9.0
100
AcDbArc
 50
343.8723797868383
 51
16.12762021315983
  0
LINE
  5
18E
330
1F
100
AcDbEntity
  8
AM_11
  6
CENTER
 62
     3
100
AcDbLine
 10
-69.72782535077704
 20
-38.88034778608608
 30
0.0
 11
-111.7278253507771
 21
-38.88034778608618
 31
0.0
  0
LINE
  5
18F
330
1F
100
AcDbEntity
  8
AM_11
  6
CENTER
 62
     3
100
AcDbLine
 10
-94.72782535077695
 20
-44.88034778608618
 30
0.0
 11
-94.72782535077695
 21
-45.07650020879298
 31
0.0
  0
LINE
  5
190
330
1F
100
AcDbEntity
  8
AM_11
  6
CENTER
 62
     3
100
AcDbLine
 10
-94.72782535077704
 20
-50.68419536337957
 30
0.0
 11
-94.72782535077704
 21
-50.88034778608618
 31
0.0
  0
LINE
  5
191
330
1F
100
AcDbEntity
  8
AM_11
  6
CENTER
 62
     3
100
AcDbLine
 10
-88.72782535077695
 20
-44.88034778608618
 30
0.0
 11
-88.72782535077695
 21
-45.07650020879308
 31
0.0
  0
LINE
  5
192
330
1F
100
AcDbEntity
  8
AM_11
  6
CENTER
 62
     3
100
AcDbLine
 10
-88.72782535077704
 20
-50.68419536337977
 30
0.0
 11
-88.72782535077704
 21
-50.88034778608618
 31
0.0
  0
LINE
  5
193
330
1F
100
AcDbEntity
  8
AM_11
  6
CENTER
 62
     3
100
AcDbLine
 10
-88.72782535077704
 20
-50.88034778608618
 30
0.0
 11
-88.84107400482876
 21
-50.88034778608618
 31
0.0
  0
LINE
  5
194
330
1F
100
AcDbEntity
  8
AM_11
  6
CENTER
 62
     3
100
AcDbLine
 10
-94.61457669672524
 20
-50.88034778608618
 30
0.0
 11
-94.72782535077704
 21
-50.88034778608618
 31
0.0
  0
LINE
  5
195
330
1F
100
AcDbEntity
  8
AM_11
  6
CENTER
 62
     3
100
AcDbLine
 10
-88.72782535077695
 20
-44.88034778608618
 30
0.0
 11
-88.84107400482904
 21
-44.88034778608618
 31
0.0
  0
LINE
  5
196
330
1F
100
AcDbEntity
  8
AM_11
  6
CENTER
 62
     3
100
AcDbLine
 10
-94.61457669672495
 20
-44.88034778608618
 30
0.0
 11
-94.72782535077695
 21
-44.88034778608618
 31
0.0
  0
ARC
  5
197
330
1F
100
AcDbEntity
  8
AM_11
  6
CENTER
 62
     3
100
AcDbCircle
 10
-46.72782535077695
 20
-47.88034778608608
 30
0.0
 40
2.5
100
AcDbArc
 50
269.9999999999935
 51
89.99999999999349
  0
LINE
  5
198
330
1F
100
AcDbEntity
  8
AM_11
  6
CENTER
 62
     3
100
AcDbLine
 10
-46.72782535077704
 20
-50.38034778608618
 30
0.0
 11
-48.72782535077695
 21
-50.38034778608628
 31
0.0
  0
LINE
  5
199
330
1F
100
AcDbEntity
  8
AM_11
  6
CENTER
 62
     3
100
AcDbLine
 10
-78.37363358367236
 20
-50.38034778608628
 30
0.0
 11
-79.72782535077704
 21
-50.38034778608628
 31
0.0
  0
CIRCLE
  5
19A
330
1F
100
AcDbEntity
  8
AM_11
  6
CENTER
 62
     3
100
AcDbCircle
 10
-54.72782535077724
 20
-47.88034778608618
 30
0.0
 40
2.5
  0
LINE
  5
19B
330
1F
100
AcDbEntity
  8
AM_11
  6
CENTER
 62
     3
100
AcDbLine
 10
-60.72782535077724
 20
-49.88034778608608
 30
0.0
 11
-60.72782535077704
 21
-50.38034778608618
 31
0.0
  0
LINE
  5
19C
330
1F
100
AcDbEntity
  8
AM_11
  6
CENTER
 62
     3
100
AcDbLine
 10
-48.72782535077715
 20
-45.38034778608618
 30
0.0
 11
-48.72782535077695
 21
-50.38034778608618
 31
0.0
  0
LINE
  5
19D
330
1F
100
AcDbEntity
  8
AM_11
  6
CENTER
 62
     3
100
AcDbLine
 10
-63.72782535077695
 20
-45.88034778608618
 30
0.0
 11
-63.72782535077715
 21
-49.88034778608618
 31
0.0
  0
LINE
  5
19E
330
1F
100
AcDbEntity
  8
AM_11
  6
CENTER
 62
     3
100
AcDbLine
 10
-60.72782535077724
 20
-49.88034778608608
 30
0.0
 11
-63.72782535077715
 21
-49.88034778608618
 31
0.0
  0
LINE
  5
19F
330
1F
100
AcDbEntity
  8
AM_11
  6
CENTER
 62
     3
100
AcDbLine
 10
-60.72782535077684
 20
-45.88034778608618
 30
0.0
 11
-63.72782535077695
 21
-45.88034778608618
 31
0.0
  0
CIRCLE
  5
1A0
330
1F
100
AcDbEntity
  8
AM_11
  6
CENTER
 62
     3
100
AcDbCircle
 10
-91.72782535077704
 20
-47.88034778608618
 30
0.0
 40
6.000000000000007
  0
ARC
  5
1A1
330
1F
100
AcDbEntity
  8
AM_11
  6
CENTER
 62
     3
100
AcDbCircle
 10
-79.72782535077704
 20
-47.88034778608517
 30
0.0
 40
2.5
100
AcDbArc
 50
90.0
 51
270.0
  0
ARC
  5
1A2
330
1F
100
AcDbEntity
  8
AM_11
  6
CENTER
 62
     3
100
AcDbCircle
 10
-91.72782535077704
 20
-47.88034778608628
 30
0.0
 40
26.0
100
AcDbArc
 50
232.8374797630817
 51
307.1625202369181
  0
ARC
  5
1A3
330
1F
100
AcDbEntity
  8
AM_11
  6
CENTER
 62
     3
100
AcDbCircle
 10
-91.72782535077704
 20
-47.88034778608628
 30
0.0
 40
25.0
100
AcDbArc
 50
255.3374797630842
 51
284.6625202369157
  0
ARC
  5
1A4
330
1F
100
AcDbEntity
  8
AM_11
  6
CENTER
 62
     3
100
AcDbCircle
 10
-86.15907190307735
 20
-69.16388567429298
 30
0.0
 40
3.0
100
AcDbArc
 50
284.6625202369157
 51
22.50000000000064
  0
ARC
  5
1A5
330
1F
100
AcDbEntity
  8
AM_11
  6
CENTER
 62
     3
100
AcDbCircle
 10
-97.29657879847665
 20
-69.1638856742931
 30
0.0
 40
3.0
100
AcDbArc
 50
157.4999999999994
 51
255.3374797630842
  0
ARC
  5
1A6
330
1F
100
AcDbEntity
  8
AM_11
  6
CENTER
 62
     3
100
AcDbCircle
 10
-105.0175400146399
 20
-65.41270313706825
 30
0.0
 40
4.0
100
AcDbArc
 50
134.9999999999997
 51
232.8374797630818
  0
ARC
  5
1A7
330
1F
100
AcDbEntity
  8
AM_11
  6
CENTER
 62
     3
100
AcDbCircle
 10
-91.72782535077704
 20
-47.88034778608628
 30
0.0
 40
10.0
100
AcDbArc
 50
64.15806723683787
 51
115.8419327631675
  0
ARC
  5
1A8
330
1F
100
AcDbEntity
  8
AM_11
  6
CENTER
 62
     3
100
AcDbCircle
 10
-84.50980707198474
 20
-57.46680761894531
 30
0.0
 40
3.0
100
AcDbArc
 50
168.726848554787
 51
202.5000000000057
  0
ARC
  5
1A9
330
1F
100
AcDbEntity
  8
AM_11
  6
CENTER
 62
     3
100
AcDbCircle
 10
-98.94584362956945
 20
-57.46680761894517
 30
0.0
 40
3.0
100
AcDbArc
 50
337.4999999999994
 51
11.27315144520965
  0
LINE
  5
1AA
330
1F
100
AcDbEntity
  8
AM_11
  6
CENTER
 62
     3
100
AcDbLine
 10
-96.17420503203536
 20
-58.61485791604052
 30
0.0
 11
-100.0682173960105
 21
-68.01583537719777
 31
0.0
  0
LINE
  5
1AB
330
1F
100
AcDbEntity
  8
AM_11
  6
CENTER
 62
     3
100
AcDbLine
 10
-102.1420389131501
 20
-56.88034778608615
 30
0.0
 11
-107.8459671393861
 21
-62.58427601232204
 31
0.0
  0
LINE
  5
1AC
330
1F
100
AcDbEntity
  8
AM_11
  6
CENTER
 62
     3
100
AcDbLine
 10
-87.28144566951866
 20
-58.61485791604063
 30
0.0
 11
-83.38743330554345
 21
-68.01583537719767
 31
0.0
  0
ARC
  5
1AD
330
1F
100
AcDbEntity
  8
AM_11
  6
CENTER
 62
     3
100
AcDbCircle
 10
-78.43811068691406
 20
-65.41270313706825
 30
0.0
 40
4.0
100
AcDbArc
 50
307.1625202369181
 51
45.00000000000015
  0
LINE
  5
1AE
330
1F
100
AcDbEntity
  8
AM_11
  6
CENTER
 62
     3
100
AcDbLine
 10
-81.31361178840396
 20
-56.88034778608615
 30
0.0
 11
-75.60968356216785
 21
-62.58427601232204
 31
0.0
  0
CIRCLE
  5
1AF
330
1F
100
AcDbEntity
  8
AM_11
  6
CENTER
 62
     3
100
AcDbCircle
 10
-91.72782535077704
 20
-47.88034778608628
 30
0.0
 40
5.0
  0
LINE
  5
1B0
330
1F
100
AcDbEntity
  8
AM_11
  6
CENTER
 62
     3
100
AcDbLine
 10
-82.72782535077704
 20
41.29076616171403
 30
0.0
 11
-82.72782535077704
 21
38.79076616171403
 31
0.0
  0
LINE
  5
1B1
330
1F
100
AcDbEntity
  8
AM_11
  6
CENTER
 62
     3
100
AcDbLine
 10
-111.7278253507771
 20
38.79076616171403
 30
0.0
 11
-111.7278253507771
 21
29.29076616171403
 31
0.0
  0
ARC
  5
1B2
330
1F
100
AcDbEntity
  8
AM_11
  6
CENTER
 62
     3
100
AcDbCircle
 10
-109.2278253507771
 20
29.29076616171403
 30
0.0
 40
2.5
100
AcDbArc
 50
180.0
 51
270.0
  0
ARC
  5
1B3
330
1F
100
AcDbEntity
  8
AM_11
  6
CENTER
 62
     3
100
AcDbCircle
 10
-109.2278253507771
 20
38.79076616171403
 30
0.0
 40
2.5
100
AcDbArc
 50
90.0
 51
180.0
  0
LINE
  5
1B4
330
1F
100
AcDbEntity
  8
AM_11
  6
CENTER
 62
     3
100
AcDbLine
 10
-82.72782535077704
 20
41.29076616171403
 30
0.0
 11
-109.2278253507771
 21
41.29076616171403
 31
0.0
  0
LINE
  5
1B5
330
1F
100
AcDbEntity
  8
AM_11
  6
CENTER
 62
     3
100
AcDbLine
 10
-82.72782535077704
 20
38.79076616171403
 30
0.0
 11
-109.2278253507771
 21
38.79076616171403
 31
0.0
  0
LINE
  5
1B6
330
1F
100
AcDbEntity
  8
AM_11
  6
CENTER
 62
     3
100
AcDbLine
 10
-37.72782535077695
 20
26.79076616171392
 30
0.0
 11
-109.2278253507771
 21
26.79076616171392
 31
0.0
  0
LINE
  5
1B7
330
1F
100
AcDbEntity
  8
AM_11
  6
CENTER
 62
     3
100
AcDbLine
 10
-37.72782535077695
 20
29.29076616171403
 30
0.0
 11
-109.2278253507771
 21
29.29076616171403
 31
0.0
  0
LINE
  5
1B8
330
1F
100
AcDbEntity
  8
AM_11
  6
CENTER
 62
     3
100
AcDbLine
 10
-109.2278253507771
 20
38.79076616171403
 30
0.0
 11
-109.2278253507771
 21
29.29076616171403
 31
0.0
  0
LINE
  5
1B9
330
1F
100
AcDbEntity
  8
AM_11
  6
CENTER
 62
     3
100
AcDbLine
 10
-37.72782535077695
 20
29.29076616171403
 30
0.0
 11
-37.72782535077695
 21
26.79076616171392
 31
0.0
  0
LINE
  5
1BA
330
1F
100
AcDbEntity
  8
AM_11
  6
CENTER
 62
     3
100
AcDbLine
 10
-57.22782535077704
 20
38.29076616171392
 30
0.0
 11
-57.22782535077704
 21
34.29076616171403
 31
0.0
  0
LINE
  5
1BB
330
1F
100
AcDbEntity
  8
AM_11
  6
CENTER
 62
     3
100
AcDbLine
 10
-56.72782535077715
 20
38.29076616171392
 30
0.0
 11
-56.72782535077715
 21
34.29076616171403
 31
0.0
  0
LINE
  5
1BC
330
1F
100
AcDbEntity
  8
AM_11
  6
CENTER
 62
     3
100
AcDbLine
 10
-52.22782535077695
 20
38.29076616171392
 30
0.0
 11
-52.22782535077695
 21
34.29076616171403
 31
0.0
  0
LINE
  5
1BD
330
1F
100
AcDbEntity
  8
AM_11
  6
CENTER
 62
     3
100
AcDbLine
 10
-52.72782535077715
 20
38.29076616171392
 30
0.0
 11
-52.72782535077715
 21
34.29076616171403
 31
0.0
  0
LINE
  5
1BE
330
1F
100
AcDbEntity
  8
AM_11
  6
CENTER
 62
     3
100
AcDbLine
 10
-60.72782535077704
 20
26.79076616171392
 30
0.0
 11
-60.72782535077704
 21
24.79076616171392
 31
0.0
  0
LINE
  5
1BF
330
1F
100
AcDbEntity
  8
AM_11
  6
CENTER
 62
     3
100
AcDbLine
 10
-48.72782535077715
 20
26.79076616171392
 30
0.0
 11
-48.72782535077715
 21
24.79076616171392
 31
0.0
  0
LINE
  5
1C0
330
1F
100
AcDbEntity
  8
AM_11
  6
CENTER
 62
     3
100
AcDbLine
 10
-52.22782535077695
 20
38.29076616171392
 30
0.0
 11
-57.22782535077704
 21
38.29076616171392
 31
0.0
  0
LINE
  5
1C1
330
1F
100
AcDbEntity
  8
AM_11
  6
CENTER
 62
     3
100
AcDbLine
 10
-52.22782535077695
 20
7.290766161714032
 30
0.0
 11
-57.22782535077704
 21
7.290766161714032
 31
0.0
  0
LINE
  5
1C2
330
1F
100
AcDbEntity
  8
AM_11
  6
CENTER
 62
     3
100
AcDbLine
 10
-61.72782535077704
 20
24.79076616171392
 30
0.0
 11
-48.72782535077715
 21
24.79076616171392
 31
0.0
  0
LINE
  5
1C3
330
1F
100
AcDbEntity
  8
AM_11
  6
CENTER
 62
     3
100
AcDbLine
 10
-60.02782535077674
 20
30.29076616171403
 30
0.0
 11
-49.42782535077725
 21
30.29076616171403
 31
0.0
  0
LINE
  5
1C4
330
1F
100
AcDbEntity
  8
AM_11
  6
CENTER
 62
     3
100
AcDbLine
 10
-58.72782535077744
 20
34.29076616171403
 30
0.0
 11
-50.72782535077704
 21
34.29076616171403
 31
0.0
  0
LINE
  5
1C5
330
1F
100
AcDbEntity
  8
AM_11
  6
CENTER
 62
     3
100
AcDbLine
 10
-50.10902319726026
 20
33.93350057180592
 30
0.0
 11
-50.10902319726026
 21
30.29076616171403
 31
0.0
  0
LINE
  5
1C6
330
1F
100
AcDbEntity
  8
AM_11
  6
CENTER
 62
     3
100
AcDbLine
 10
-52.41842427401835
 20
33.93350057180592
 30
0.0
 11
-52.41842427401835
 21
30.29076616171403
 31
0.0
  0
LINE
  5
1C7
330
1F
100
AcDbEntity
  8
AM_11
  6
CENTER
 62
     3
100
AcDbLine
 10
-57.03722642753564
 20
33.93350057180592
 30
0.0
 11
-57.03722642753564
 21
30.29076616171403
 31
0.0
  0
LINE
  5
1C8
330
1F
100
AcDbEntity
  8
AM_11
  6
CENTER
 62
     3
100
AcDbLine
 10
-49.42782535077725
 20
30.29076616171403
 30
0.0
 11
-49.42782535077725
 21
29.29076616171403
 31
0.0
  0
LINE
  5
1C9
330
1F
100
AcDbEntity
  8
AM_11
  6
CENTER
 62
     3
100
AcDbLine
 10
-60.02782535077674
 20
30.29076616171403
 30
0.0
 11
-60.02782535077674
 21
29.29076616171403
 31
0.0
  0
LINE
  5
1CA
330
1F
100
AcDbEntity
  8
AM_11
  6
CENTER
 62
     3
100
AcDbLine
 10
-50.72782535077704
 20
34.29076616171403
 30
0.0
 11
-50.10902319726026
 21
33.93350057180592
 31
0.0
  0
ARC
  5
1CB
330
1F
100
AcDbEntity
  8
AM_11
  6
CENTER
 62
     3
100
AcDbCircle
 10
-54.72782535077704
 20
26.64803175162012
 30
0.0
 40
7.642734410093918
100
AcDbArc
 50
72.41204622600904
 51
107.587953773991
  0
ARC
  5
1CC
330
1F
100
AcDbEntity
  8
AM_11
  6
CENTER
 62
     3
100
AcDbCircle
 10
-51.26372373563936
 20
32.24610796297551
 30
0.0
 40
2.044658198738654
100
AcDbArc
 50
55.61575253196145
 51
124.3842474680386
  0
LINE
  5
1CD
330
1F
100
AcDbEntity
  8
AM_11
  6
CENTER
 62
     3
100
AcDbLine
 10
-59.34662750429425
 20
33.93350057180592
 30
0.0
 11
-59.34662750429425
 21
30.29076616171403
 31
0.0
  0
LINE
  5
1CE
330
1F
100
AcDbEntity
  8
AM_11
  6
CENTER
 62
     3
100
AcDbLine
 10
-58.72782535077744
 20
34.29076616171403
 30
0.0
 11
-59.34662750429425
 21
33.93350057180592
 31
0.0
  0
ARC
  5
1CF
330
1F
100
AcDbEntity
  8
AM_11
  6
CENTER
 62
     3
100
AcDbCircle
 10
-58.19192696591435
 20
32.24610796297551
 30
0.0
 40
2.044658198738654
100
AcDbArc
 50
55.61575253196145
 51
124.3842474680386
  0
LINE
  5
1D0
330
1F
100
AcDbEntity
  8
AM_11
  6
CENTER
 62
     3
100
AcDbLine
 10
-57.22782535077704
 20
24.79076616171392
 30
0.0
 11
-57.22782535077704
 21
16.79076616171403
 31
0.0
  0
LINE
  5
1D1
330
1F
100
AcDbEntity
  8
AM_11
  6
CENTER
 62
     3
100
AcDbLine
 10
-57.22782535077704
 20
14.29076616171392
 30
0.0
 11
-57.22782535077704
 21
7.290766161714032
 31
0.0
  0
LINE
  5
1D2
330
1F
100
AcDbEntity
  8
AM_11
  6
CENTER
 62
     3
100
AcDbLine
 10
-52.22782535077695
 20
24.79076616171392
 30
0.0
 11
-52.22782535077695
 21
16.79076616171403
 31
0.0
  0
LINE
  5
1D3
330
1F
100
AcDbEntity
  8
AM_11
  6
CENTER
 62
     3
100
AcDbLine
 10
-52.22782535077695
 20
14.29076616171392
 30
0.0
 11
-52.22782535077695
 21
7.290766161714032
 31
0.0
  0
ARC
  5
1D4
330
1F
100
AcDbEntity
  8
AM_11
  6
CENTER
 62
     3
100
AcDbCircle
 10
-61.72782535077704
 20
26.79076616171392
 30
0.0
 40
2.0
100
AcDbArc
 50
180.0
 51
270.0
  0
LINE
  5
1D5
330
1F
100
AcDbEntity
  8
AM_11
  6
CENTER
 62
     3
100
AcDbLine
 10
-95.72782535077724
 20
34.79076616171403
 30
0.0
 11
-87.72782535077695
 21
34.79076616171403
 31
0.0
  0
LINE
  5
1D6
330
1F
100
AcDbEntity
  8
AM_11
  6
CENTER
 62
     3
100
AcDbLine
 10
-87.10902319726006
 20
35.14803175162234
 30
0.0
 11
-87.10902319726006
 21
38.29076616171392
 31
0.0
  0
LINE
  5
1D7
330
1F
100
AcDbEntity
  8
AM_11
  6
CENTER
 62
     3
100
AcDbLine
 10
-89.41842427401855
 20
35.14803175162234
 30
0.0
 11
-89.41842427401855
 21
38.29076616171392
 31
0.0
  0
LINE
  5
1D8
330
1F
100
AcDbEntity
  8
AM_11
  6
CENTER
 62
     3
100
AcDbLine
 10
-94.03722642753556
 20
35.14803175162191
 30
0.0
 11
-94.03722642753556
 21
38.29076616171392
 31
0.0
  0
LINE
  5
1D9
330
1F
100
AcDbEntity
  8
AM_11
  6
CENTER
 62
     3
100
AcDbLine
 10
-87.72782535077695
 20
34.79076616171403
 30
0.0
 11
-87.10902319726006
 21
35.14803175162234
 31
0.0
  0
ARC
  5
1DA
330
1F
100
AcDbEntity
  8
AM_11
  6
CENTER
 62
     3
100
AcDbCircle
 10
-91.72782535077715
 20
42.43350057180794
 30
0.0
 40
7.642734410093918
100
AcDbArc
 50
252.4120462260229
 51
287.587953773991
  0
ARC
  5
1DB
330
1F
100
AcDbEntity
  8
AM_11
  6
CENTER
 62
     3
100
AcDbCircle
 10
-88.26372373563945
 20
36.83542436045244
 30
0.0
 40
2.044658198738654
100
AcDbArc
 50
235.6157525319694
 51
304.3842474680536
  0
LINE
  5
1DC
330
1F
100
AcDbEntity
  8
AM_11
  6
CENTER
 62
     3
100
AcDbLine
 10
-96.34662750429425
 20
35.14803175162234
 30
0.0
 11
-96.34662750429425
 21
38.29076616171392
 31
0.0
  0
LINE
  5
1DD
330
1F
100
AcDbEntity
  8
AM_11
  6
CENTER
 62
     3
100
AcDbLine
 10
-95.72782535077724
 20
34.79076616171403
 30
0.0
 11
-96.34662750429425
 21
35.14803175162234
 31
0.0
  0
ARC
  5
1DE
330
1F
100
AcDbEntity
  8
AM_11
  6
CENTER
 62
     3
100
AcDbCircle
 10
-95.19192696591435
 20
36.83542436045244
 30
0.0
 40
2.044658198738654
100
AcDbArc
 50
235.6157525319614
 51
304.3842474680386
  0
LINE
  5
1DF
330
1F
100
AcDbEntity
  8
AM_11
  6
CENTER
 62
     3
100
AcDbLine
 10
-86.72782535077704
 20
38.29076616171392
 30
0.0
 11
-96.72782535077704
 21
38.29076616171392
 31
0.0
  0
LINE
  5
1E0
330
1F
100
AcDbEntity
  8
AM_11
  6
CENTER
 62
     3
100
AcDbLine
 10
-86.72782535077704
 20
38.79076616171403
 30
0.0
 11
-86.72782535077704
 21
38.29076616171392
 31
0.0
  0
LINE
  5
1E1
330
1F
100
AcDbEntity
  8
AM_11
  6
CENTER
 62
     3
100
AcDbLine
 10
-96.72782535077704
 20
38.79076616171403
 30
0.0
 11
-96.72782535077704
 21
38.29076616171392
 31
0.0
  0
LINE
  5
1E2
330
1F
100
AcDbEntity
  8
AM_11
  6
CENTER
 62
     3
100
AcDbLine
 10
-57.22782535077704
 20
22.29076616171403
 30
0.0
 11
-52.22782535077695
 21
22.29076616171403
 31
0.0
  0
LINE
  5
1E3
330
1F
100
AcDbEntity
  8
AM_11
  6
CENTER
 62
     3
100
AcDbLine
 10
-52.72782535077715
 20
24.79076616171392
 30
0.0
 11
-52.72782535077715
 21
22.29076616171403
 31
0.0
  0
LINE
  5
1E4
330
1F
100
AcDbEntity
  8
AM_11
  6
CENTER
 62
     3
100
AcDbLine
 10
-56.72782535077715
 20
24.79076616171392
 30
0.0
 11
-56.72782535077715
 21
22.29076616171403
 31
0.0
  0
LINE
  5
1E5
330
1F
100
AcDbEntity
  8
AM_11
  6
CENTER
 62
     3
100
AcDbLine
 10
-122.7278253507771
 20
-75.88034778608625
 30
0.0
 11
-122.7278253507771
 21
-76.88034778608623
 31
0.0
  0
LINE
  5
1E6
330
1F
100
AcDbEntity
  8
AM_11
  6
CENTER
 62
     3
100
AcDbLine
 10
-117.0142787960767
 20
-74.8921803845572
 30
0.0
 11
-116.927825350777
 21
-75.88034778608625
 31
0.0
  0
LINE
  5
1E7
330
1F
100
AcDbEntity
  8
AM_11
  6
CENTER
 62
     3
100
AcDbLine
 10
-122.4413719054774
 20
-74.8921803845572
 30
0.0
 11
-122.527825350777
 21
-75.88034778608625
 31
0.0
  0
ARC
  5
1E8
330
1F
100
AcDbEntity
  8
AM_11
  6
CENTER
 62
     3
100
AcDbCircle
 10
-119.7278253507771
 20
-78.48034778608626
 30
0.0
 40
5.0
100
AcDbArc
 50
66.45286276293402
 51
113.547137237066
  0
ARC
  5
1E9
330
1F
100
AcDbEntity
  8
AM_11
  6
CENTER
 62
     3
100
AcDbCircle
 10
-121.2459382677672
 20
-74.99676727585431
 30
0.0
 40
1.199999999999999
100
AcDbArc
 50
113.5471372370659
 51
175.0000000000001
  0
ARC
  5
1EA
330
1F
100
AcDbEntity
  8
AM_11
  6
CENTER
 62
     3
100
AcDbCircle
 10
-118.2097124337867
 20
-74.99676727585431
 30
0.0
 40
1.199999999999999
100
AcDbArc
 50
4.999999999999926
 51
66.45286276293407
  0
LINE
  5
1EB
330
1F
100
AcDbEntity
  8
AM_11
  6
CENTER
 62
     3
100
AcDbLine
 10
-122.7278253507771
 20
-75.88034778608625
 30
0.0
 11
-116.7278253507771
 21
-75.88034778608625
 31
0.0
  0
LINE
  5
1EC
330
1F
100
AcDbEntity
  8
AM_11
  6
CENTER
 62
     3
100
AcDbLine
 10
-116.7278253507771
 20
-75.88034778608625
 30
0.0
 11
-116.7278253507771
 21
-76.88034778608623
 31
0.0
  0
LINE
  5
1ED
330
1F
100
AcDbEntity
  8
AM_11
  6
CENTER
 62
     3
100
AcDbLine
 10
-60.72782535077704
 20
-75.88034778608625
 30
0.0
 11
-60.72782535077704
 21
-76.88034778608623
 31
0.0
  0
LINE
  5
1EE
330
1F
100
AcDbEntity
  8
AM_11
  6
CENTER
 62
     3
100
AcDbLine
 10
-66.44137190547735
 20
-74.8921803845572
 30
0.0
 11
-66.52782535077694
 21
-75.88034778608625
 31
0.0
  0
LINE
  5
1EF
330
1F
100
AcDbEntity
  8
AM_11
  6
CENTER
 62
     3
100
AcDbLine
 10
-61.01427879607664
 20
-74.8921803845572
 30
0.0
 11
-60.92782535077706
 21
-75.88034778608625
 31
0.0
  0
ARC
  5
1F0
330
1F
100
AcDbEntity
  8
AM_11
  6
CENTER
 62
     3
100
AcDbCircle
 10
-63.72782535077695
 20
-78.48034778608626
 30
0.0
 40
5.0
100
AcDbArc
 50
66.45286276293388
 51
113.5471372370661
  0
ARC
  5
1F1
330
1F
100
AcDbEntity
  8
AM_11
  6
CENTER
 62
     3
100
AcDbCircle
 10
-62.20971243378685
 20
-74.99676727585431
 30
0.0
 40
1.199999999999999
100
AcDbArc
 50
4.999999999999926
 51
66.45286276293407
  0
ARC
  5
1F2
330
1F
100
AcDbEntity
  8
AM_11
  6
CENTER
 62
     3
100
AcDbCircle
 10
-65.24593826776726
 20
-74.99676727585431
 30
0.0
 40
1.199999999999999
100
AcDbArc
 50
113.5471372370659
 51
175.0000000000001
  0
LINE
  5
1F3
330
1F
100
AcDbEntity
  8
AM_11
  6
CENTER
 62
     3
100
AcDbLine
 10
-60.72782535077704
 20
-75.88034778608625
 30
0.0
 11
-66.72782535077704
 21
-75.88034778608625
 31
0.0
  0
LINE
  5
1F4
330
1F
100
AcDbEntity
  8
AM_11
  6
CENTER
 62
     3
100
AcDbLine
 10
-66.72782535077704
 20
-75.88034778608625
 30
0.0
 11
-66.72782535077704
 21
-76.88034778608623
 31
0.0
  0
LINE
  5
1F5
330
1F
100
AcDbEntity
  8
AM_11
  6
CENTER
 62
     3
100
AcDbLine
 10
-93.72782535077704
 20
-47.59699044646128
 30
0.0
 11
-93.72782535077704
 21
-48.16370512571118
 31
0.0
  0
LINE
  5
1F6
330
1F
100
AcDbEntity
  8
AM_11
  6
CENTER
 62
     3
100
AcDbLine
 10
-89.72782535077695
 20
-47.59699044646128
 30
0.0
 11
-89.72782535077695
 21
-48.16370512571118
 31
0.0
  0
LINE
  5
1F7
330
1F
100
AcDbEntity
  8
AM_11
  6
CENTER
 62
     3
100
AcDbLine
 10
-93.72782535077704
 20
-47.59699044646128
 30
0.0
 11
-92.01118269040194
 21
-47.59699044646128
 31
0.0
  0
LINE
  5
1F8
330
1F
100
AcDbEntity
  8
AM_11
  6
CENTER
 62
     3
100
AcDbLine
 10
-91.44446801115205
 20
-47.59699044646128
 30
0.0
 11
-89.72782535077695
 21
-47.59699044646128
 31
0.0
  0
LINE
  5
1F9
330
1F
100
AcDbEntity
  8
AM_11
  6
CENTER
 62
     3
100
AcDbLine
 10
-91.44446801115205
 20
-47.59699044646128
 30
0.0
 11
-91.44446801115205
 21
-45.88034778608628
 31
0.0
  0
LINE
  5
1FA
330
1F
100
AcDbEntity
  8
AM_11
  6
CENTER
 62
     3
100
AcDbLine
 10
-92.01118269040194
 20
-47.59699044646128
 30
0.0
 11
-92.01118269040194
 21
-45.88034778608628
 31
0.0
  0
LINE
  5
1FB
330
1F
100
AcDbEntity
  8
AM_11
  6
CENTER
 62
     3
100
AcDbLine
 10
-91.44446801115205
 20
-45.88034778608628
 30
0.0
 11
-92.01118269040194
 21
-45.88034778608628
 31
0.0
  0
LINE
  5
1FC
330
1F
100
AcDbEntity
  8
AM_11
  6
CENTER
 62
     3
100
AcDbLine
 10
-93.72782535077704
 20
-48.16370512571118
 30
0.0
 11
-92.01118269040194
 21
-48.16370512571118
 31
0.0
  0
LINE
  5
1FD
330
1F
100
AcDbEntity
  8
AM_11
  6
CENTER
 62
     3
100
AcDbLine
 10
-91.44446801115205
 20
-48.16370512571118
 30
0.0
 11
-89.72782535077695
 21
-48.16370512571118
 31
0.0
  0
LINE
  5
1FE
330
1F
100
AcDbEntity
  8
AM_11
  6
CENTER
 62
     3
100
AcDbLine
 10
-92.01118269040194
 20
-49.88034778608628
 30
0.0
 11
-92.01118269040194
 21
-48.16370512571118
 31
0.0
  0
LINE
  5
1FF
330
1F
100
AcDbEntity
  8
AM_11
  6
CENTER
 62
     3
100
AcDbLine
 10
-91.44446801115205
 20
-49.88034778608628
 30
0.0
 11
-91.44446801115205
 21
-48.16370512571118
 31
0.0
  0
LINE
  5
200
330
1F
100
AcDbEntity
  8
AM_11
  6
CENTER
 62
     3
100
AcDbLine
 10
-91.44446801115205
 20
-49.88034778608628
 30
0.0
 11
-92.01118269040194
 21
-49.88034778608628
 31
0.0
  0
CIRCLE
  5
201
330
1F
100
AcDbEntity
  8
AM_11
  6
CENTER
 62
     3
100
AcDbCircle
 10
-91.72782535077704
 20
-47.88034778608628
 30
0.0
 40
3.999999999999843
  0
LINE
  5
202
330
1F
100
AcDbEntity
  8
AM_11
  6
CENTER
 62
     3
100
AcDbLine
 10
-60.72782535077724
 20
-45.88034778608628
 30
0.0
 11
-60.72782535077704
 21
-45.38034778608618
 31
0.0
  0
LINE
  5
203
330
1F
100
AcDbEntity
  8
AM_11
  6
CENTER
 62
     3
100
AcDbLine
 10
41.27217464922307
 20
-66.8803477860862
 30
0.0
 11
41.27217464922307
 21
-56.88034778608618
 31
0.0
  0
LINE
  5
204
330
1F
100
AcDbEntity
  8
AM_11
  6
CENTER
 62
     3
100
AcDbLine
 10
61.27217464922307
 20
-66.8803477860862
 30
0.0
 11
61.27217464922307
 21
-56.88034778608618
 31
0.0
  0
LINE
  5
205
330
1F
100
AcDbEntity
  8
AM_11
  6
CENTER
 62
     3
100
AcDbLine
 10
41.27217464922307
 20
-38.88034778608618
 30
0.0
 11
41.27217464922307
 21
-28.88034778608618
 31
0.0
  0
LINE
  5
206
330
1F
100
AcDbEntity
  8
AM_11
  6
CENTER
 62
     3
100
AcDbLine
 10
61.27217464922307
 20
-38.88034778608618
 30
0.0
 11
61.27217464922307
 21
-28.88034778608618
 31
0.0
  0
INSERT
  5
207
330
1F
100
AcDbEntity
  8
AM_11
  6
CENTER
100
AcDbBlockReference
  2
DC_GROUP_4
 10
0.0
 20
0.0
 30
0.0
  0
LINE
  5
208
330
1F
100
AcDbEntity
  8
AM_4
  6
CONTINUOUS
 62
     3
100
AcDbLine
 10
73.67217464922294
 20
35.79076616171403
 30
0.0
 11
73.67217464922294
 21
41.56693327184723
 31
0.0
  0
LINE
  5
209
330
1F
100
AcDbEntity
  8
AM_4
  6
CONTINUOUS
 62
     3
100
AcDbLine
 10
68.87217464922304
 20
35.79076616171403
 30
0.0
 11
68.87217464922304
 21
41.56693327184723
 31
0.0
  0
LINE
  5
20A
330
1F
100
AcDbEntity
  8
AM_4
  6
CONTINUOUS
 62
     3
100
AcDbLine
 10
28.87217464922304
 20
35.79076616171403
 30
0.0
 11
28.87217464922304
 21
41.56693327184723
 31
0.0
  0
LINE
  5
20B
330
1F
100
AcDbEntity
  8
AM_4
  6
CONTINUOUS
 62
     3
100
AcDbLine
 10
33.67217464922294
 20
35.79076616171403
 30
0.0
 11
33.67217464922294
 21
41.56693327184723
 31
0.0
  0
LINE
  5
20C
330
1F
100
AcDbEntity
  8
AM_4
  6
CONTINUOUS
 62
     3
100
AcDbLine
 10
73.67217464922294
 20
60.56693327184723
 30
0.0
 11
73.67217464922294
 21
61.99076616171402
 31
0.0
  0
LINE
  5
20D
330
1F
100
AcDbEntity
  8
AM_4
  6
CONTINUOUS
 62
     3
100
AcDbLine
 10
68.87217464922304
 20
60.56693327184723
 30
0.0
 11
68.87217464922304
 21
61.99076616171402
 31
0.0
  0
LINE
  5
20E
330
1F
100
AcDbEntity
  8
AM_4
  6
CONTINUOUS
 62
     3
100
AcDbLine
 10
28.87217464922304
 20
60.56693327184723
 30
0.0
 11
28.87217464922304
 21
61.99076616171402
 31
0.0
  0
LINE
  5
20F
330
1F
100
AcDbEntity
  8
AM_4
  6
CONTINUOUS
 62
     3
100
AcDbLine
 10
33.67217464922294
 20
60.56693327184723
 30
0.0
 11
33.67217464922294
 21
61.99076616171402
 31
0.0
  0
VIEWPORT
  5
B6
330
1B
100
AcDbEntity
 67
     1
  8
0
100
AcDbViewport
 10
-17.51880888983217
 20
1.409677219837192
 30
0.0
 40
671.4131896747601
 41
523.0471166819391
 68
     1
 69
     1
1001
ACAD
1000
MVIEW
1002
{
1070
    16
1010
0.0
1020
0.0
1030
0.0
1010
0.0
1020
0.0
1030
1.0
1040
0.0
1040
523.0471166819391
1040
-17.51880888983217
1040
1.409677219837192
1040
50.0
1040
0.0
1040
0.0
1070
     0
1070
   100
1070
     0
1070
     3
1070
     0
1070
     0
1070
     0
1070
     0
1040
0.0
1040
0.0
1040
0.0
1040
0.5
1040
0.5
1040
0.0
1040
0.0
1070
     0
1002
{
1002
}
1002
}
  0
ENDSEC
  0
SECTION
  2
OBJECTS
  0
DICTIONARY
  5
C
330
0
100
AcDbDictionary
  3
ACAD_GROUP
350
D
  3
ACAD_LAYOUT
350
1A
  3
ACAD_MATERIAL
350
43
  3
ACAD_MLEADERSTYLE
350
6B
  3
ACAD_MLINESTYLE
350
17
  3
ACAD_PLOTSETTINGS
350
19
  3
ACAD_SCALELIST
350
47
  3
ACAD_VISUALSTYLE
350
2A
  3
ACDBHEADERROUNDTRIPXREC
350
210
  3
ACDBVARIABLEDICTIONARY
350
231
  0
DICTIONARY
  5
238
330
8
100
AcDbDictionary
280
     1
  3
ACAD_XREC_ROUNDTRIP
360
239
  0
DICTIONARY
  5
D
102
{ACAD_REACTORS
330
C
102
}
330
C
100
AcDbDictionary
  0
DICTIONARY
  5
1A
102
{ACAD_REACTORS
330
C
102
}
330
C
100
AcDbDictionary
  0
DICTIONARY
  5
43
102
{ACAD_REACTORS
330
C
102
}
330
C
100
AcDbDictionary
  3
BYBLOCK
350
45
  3
BYLAYER
350
44
  3
GLOBAL
350
46
  0
DICTIONARY
  5
6B
102
{ACAD_REACTORS
330
C
102
}
330
C
100
AcDbDictionary
  3
STANDARD
350
6C
  0
DICTIONARY
  5
17
102
{ACAD_REACTORS
330
C
102
}
330
C
100
AcDbDictionary
  3
STANDARD
350
18
  0
DICTIONARY
  5
19
102
{ACAD_REACTORS
330
C
102
}
330
C
100
AcDbDictionary
  0
DICTIONARY
  5
47
102
{ACAD_REACTORS
330
C
102
}
330
C
100
AcDbDictionary
  3
A0
350
48
  3
A1
350
49
  3
A2
350
4A
  3
A3
350
4B
  3
A4
350
4C
  3
A5
350
4D
  3
A6
350
4E
  3
A7
350
4F
  3
A8
350
50
  3
A9
350
51
  3
B0
350
52
  3
B1
350
53
  3
B2
350
54
  3
B3
350
55
  3
B4
350
56
  3
B5
350
57
  3
B6
350
58
  3
B7
350
59
  3
B8
350
5A
  3
B9
350
5B
  3
C0
350
5C
  3
C1
350
5D
  3
C2
350
5E
  3
C3
350
5F
  3
C4
350
60
  3
C5
350
61
  3
C6
350
62
  3
C7
350
63
  3
C8
350
64
  3
C9
350
65
  3
D0
350
66
  3
D1
350
67
  3
D2
350
68
  0
DICTIONARY
  5
2A
102
{ACAD_REACTORS
330
C
102
}
330
C
100
AcDbDictionary
  3
2DWIREFRAME
350
2F
  3
BASIC
350
32
  3
BRIGHTEN
350
36
  3
COLORCHANGE
350
3A
  3
CONCEPTUAL
350
34
  3
DIM
350
35
  3
EDGECOLOROFF
350
3D
  3
FACEPATTERN
350
39
  3
FLAT
350
2B
  3
FLATWITHEDGES
350
2C
  3
GOURAUD
350
2D
  3
GOURAUDWITHEDGES
350
2E
  3
HIDDEN
350
31
  3
JITTEROFF
350
3B
  3
LINEPATTERN
350
38
  3
OVERHANGOFF
350
3C
  3
REALISTIC
350
33
  3
SHADED
350
42
  3
SHADED_WITH_EDGES
350
41
  3
SHADES_OF_GRAY
350
3E
  3
SKETCHY
350
3F
  3
THICKEN
350
37
  3
WIREFRAME
350
30
  3
X-RAY
350
40
  0
DICTIONARY
  5
210
102
{ACAD_REACTORS
330
C
102
}
330
C
100
AcDbDictionary
  3
CEPSNID
350
21A
  3
CEPSNTYPE
350
219
  3
DIMSTYLEDATA
350
230
  3
FINGERPRINTGUID
350
21B
  3
HYPERLINKBASE
350
213
  3
INSUNITS
350
218
  3
LAYOUTDICT
350
215
  3
LWETCUNION
350
217
  3
PLOTSETDICT
350
216
  3
PSVPSCALE
350
21D
  3
PUCSBASE
350
220
  3
PUCSORGBACK
350
226
  3
PUCSORGBOTTOM
350
222
  3
PUCSORGFRONT
350
225
  3
PUCSORGLEFT
350
223
  3
PUCSORGRIGHT
350
224
  3
PUCSORGTOP
350
221
  3
PUCSORTHOREF
350
21E
  3
PUCSORTHOVIEW
350
21F
  3
STYLESHEET
350
214
  3
TSTACKALIGN
350
211
  3
TSTACKSIZE
350
212
  3
UCSBASE
350
229
  3
UCSORGBACK
350
22F
  3
UCSORGBOTTOM
350
22B
  3
UCSORGFRONT
350
22E
  3
UCSORGLEFT
350
22C
  3
UCSORGRIGHT
350
22D
  3
UCSORGTOP
350
22A
  3
UCSORTHOREF
350
227
  3
UCSORTHOVIEW
350
228
  3
VERSIONGUID
350
21C
  0
DICTIONARY
  5
231
102
{ACAD_REACTORS
330
C
102
}
330
C
100
AcDbDictionary
  3
CANNOSCALE
350
23A
  3
CMLEADERSTYLE
350
233
  3
CTABLESTYLE
350
232
  3
DIMASSOC
350
236
  3
HIDETEXT
350
237
  3
MSLTSCALE
350
23B
  0
XRECORD
  5
239
102
{ACAD_REACTORS
330
238
102
}
330
238
100
AcDbXrecord
102
VTR_0.000_0.000_1.000_1.000_VISUALSTYLE
340
2F
102
VTR_0.000_0.000_1.000_1.000_GRIDDISPLAY
 70
     3
102
VTR_0.000_0.000_1.000_1.000_GRIDMAJOR
 70
     5
102
VTR_0.000_0.000_1.000_1.000_DEFAULTLIGHTING
280
     1
102
VTR_0.000_0.000_1.000_1.000_DEFAULTLIGHTINGTYPE
 70
     1
102
VTR_0.000_0.000_1.000_1.000_BRIGHTNESS
141
0.0
102
VTR_0.000_0.000_1.000_1.000_CONTRAST
142
0.0
  0
MATERIAL
  5
45
102
{ACAD_REACTORS
330
43
102
}
102
{ACAD_XDICTIONARY
360
23E
102
}
330
43
100
AcDbMaterial
  1
BYBLOCK
  0
MATERIAL
  5
44
102
{ACAD_REACTORS
330
43
102
}
102
{ACAD_XDICTIONARY
360
23C
102
}
330
43
100
AcDbMaterial
  1
BYLAYER
  0
MATERIAL
  5
46
102
{ACAD_REACTORS
330
43
102
}
102
{ACAD_XDICTIONARY
360
240
102
}
330
43
100
AcDbMaterial
  1
GLOBAL
  0
ACAD_PROXY_OBJECT
  5
6C
102
{ACAD_REACTORS
330
6B
102
}
330
6B
100
AcDbProxyObject
 90
      499
 91
      505
 93
      610
310
40901902A4063FBFFFFFE056BD1B81E855B9FC0AD7A3703D0AD73F4214DD185B99185C9900AD7A3703D0AC73F90141901A02B5E8DC0F42B1CFC02B5E8DC0F42B1CFE5764000000000000300FC0
340
14
340
0
340
11
340
0
 94
        0
1001
ACAD_MLEADERVER
1070
     2
  0
MLINESTYLE
  5
18
102
{ACAD_REACTORS
330
17
102
}
330
17
100
AcDbMlineStyle
  2
Standard
 70
     0
  3

 62
   256
 51
90.0
 52
90.0
 71
     2
 49
0.5
 62
   256
  6
BYLAYER
 49
-0.5
 62
   256
  6
BYLAYER
  0
ACAD_PROXY_OBJECT
  5
48
102
{ACAD_REACTORS
330
47
102
}
330
47
100
AcDbProxyObject
 90
      499
 91
      503
 93
       41
310
903313A31580
  0
ACAD_PROXY_OBJECT
  5
49
102
{ACAD_REACTORS
330
47
102
}
330
47
100
AcDbProxyObject
 90
      499
 91
      503
 93
      105
310
903313A324000000000000004000
  0
ACAD_PROXY_OBJECT
  5
4A
102
{ACAD_REACTORS
330
47
102
}
330
47
100
AcDbProxyObject
 90
      499
 91
      503
 93
      105
310
903313A344000000000000104000
  0
ACAD_PROXY_OBJECT
  5
4B
102
{ACAD_REACTORS
330
47
102
}
330
47
100
AcDbProxyObject
 90
      499
 91
      503
 93
      105
310
903313A354000000000000144000
  0
ACAD_PROXY_OBJECT
  5
4C
102
{ACAD_REACTORS
330
47
102
}
330
47
100
AcDbProxyObject
 90
      499
 91
      503
 93
      105
310
903313A384000000000000204000
  0
ACAD_PROXY_OBJECT
  5
4D
102
{ACAD_REACTORS
330
47
102
}
330
47
100
AcDbProxyObject
 90
      499
 91
      503
 93
      113
310
904313A31304000000000000244000
  0
ACAD_PROXY_OBJECT
  5
4E
102
{ACAD_REACTORS
330
47
102
}
330
47
100
AcDbProxyObject
 90
      499
 91
      503
 93
      113
310
904313A31364000000000000304000
  0
ACAD_PROXY_OBJECT
  5
4F
102
{ACAD_REACTORS
330
47
102
}
330
47
100
AcDbProxyObject
 90
      499
 91
      503
 93
      113
310
904313A32304000000000000344000
  0
ACAD_PROXY_OBJECT
  5
50
102
{ACAD_REACTORS
330
47
102
}
330
47
100
AcDbProxyObject
 90
      499
 91
      503
 93
      113
310
904313A333040000000000003E4000
  0
ACAD_PROXY_OBJECT
  5
51
102
{ACAD_REACTORS
330
47
102
}
330
47
100
AcDbProxyObject
 90
      499
 91
      503
 93
      113
310
904313A34304000000000000444000
  0
ACAD_PROXY_OBJECT
  5
52
102
{ACAD_REACTORS
330
47
102
}
330
47
100
AcDbProxyObject
 90
      499
 91
      503
 93
      113
310
904313A35304000000000000494000
  0
ACAD_PROXY_OBJECT
  5
53
102
{ACAD_REACTORS
330
47
102
}
330
47
100
AcDbProxyObject
 90
      499
 91
      503
 93
      121
310
905313A3130304000000000000594000
  0
ACAD_PROXY_OBJECT
  5
54
102
{ACAD_REACTORS
330
47
102
}
330
47
100
AcDbProxyObject
 90
      499
 91
      503
 93
      105
310
903323A310000000000000010100
  0
ACAD_PROXY_OBJECT
  5
55
102
{ACAD_REACTORS
330
47
102
}
330
47
100
AcDbProxyObject
 90
      499
 91
      503
 93
      105
310
903343A310000000000000410100
  0
ACAD_PROXY_OBJECT
  5
56
102
{ACAD_REACTORS
330
47
102
}
330
47
100
AcDbProxyObject
 90
      499
 91
      503
 93
      105
310
903383A310000000000000810100
  0
ACAD_PROXY_OBJECT
  5
57
102
{ACAD_REACTORS
330
47
102
}
330
47
100
AcDbProxyObject
 90
      499
 91
      503
 93
      113
310
90431303A310000000000000910100
  0
ACAD_PROXY_OBJECT
  5
58
102
{ACAD_REACTORS
330
47
102
}
330
47
100
AcDbProxyObject
 90
      499
 91
      503
 93
      121
310
9053130303A310000000000001650100
  0
ACAD_PROXY_OBJECT
  5
59
102
{ACAD_REACTORS
330
47
102
}
330
47
100
AcDbProxyObject
 90
      499
 91
      503
 93
      257
310
90E312F31323822203D2031272D3022000000000000200FC000000000000284000
  0
ACAD_PROXY_OBJECT
  5
5A
102
{ACAD_REACTORS
330
47
102
}
330
47
100
AcDbProxyObject
 90
      499
 91
      503
 93
      249
310
90D312F363422203D2031272D3022000000000000240FC000000000000284000
  0
ACAD_PROXY_OBJECT
  5
5B
102
{ACAD_REACTORS
330
47
102
}
330
47
100
AcDbProxyObject
 90
      499
 91
      503
 93
      249
310
90D312F333222203D2031272D3022000000000000280FC000000000000284000
  0
ACAD_PROXY_OBJECT
  5
5C
102
{ACAD_REACTORS
330
47
102
}
330
47
100
AcDbProxyObject
 90
      499
 91
      503
 93
      249
310
90D312F313622203D2031272D30220000000000002C0FC000000000000284000
  0
ACAD_PROXY_OBJECT
  5
5D
102
{ACAD_REACTORS
330
47
102
}
330
47
100
AcDbProxyObject
 90
      499
 91
      503
 93
      249
310
90D332F333222203D2031272D30220000000000002E0FC000000000000284000
  0
ACAD_PROXY_OBJECT
  5
5E
102
{ACAD_REACTORS
330
47
102
}
330
47
100
AcDbProxyObject
 90
      499
 91
      503
 93
      241
310
90C312F3822203D2031272D3022000000000000300FC000000000000284000
  0
ACAD_PROXY_OBJECT
  5
5F
102
{ACAD_REACTORS
330
47
102
}
330
47
100
AcDbProxyObject
 90
      499
 91
      503
 93
      249
310
90D332F313622203D2031272D3022000000000000320FC000000000000284000
  0
ACAD_PROXY_OBJECT
  5
60
102
{ACAD_REACTORS
330
47
102
}
330
47
100
AcDbProxyObject
 90
      499
 91
      503
 93
      241
310
90C312F3422203D2031272D3022000000000000340FC000000000000284000
  0
ACAD_PROXY_OBJECT
  5
61
102
{ACAD_REACTORS
330
47
102
}
330
47
100
AcDbProxyObject
 90
      499
 91
      503
 93
      241
310
90C332F3822203D2031272D3022000000000000360FC000000000000284000
  0
ACAD_PROXY_OBJECT
  5
62
102
{ACAD_REACTORS
330
47
102
}
330
47
100
AcDbProxyObject
 90
      499
 91
      503
 93
      241
310
90C312F3222203D2031272D3022000000000000380FC000000000000284000
  0
ACAD_PROXY_OBJECT
  5
63
102
{ACAD_REACTORS
330
47
102
}
330
47
100
AcDbProxyObject
 90
      499
 91
      503
 93
      241
310
90C332F3422203D2031272D30220000000000003A0FC000000000000284000
  0
ACAD_PROXY_OBJECT
  5
64
102
{ACAD_REACTORS
330
47
102
}
330
47
100
AcDbProxyObject
 90
      499
 91
      503
 93
      161
310
90A3122203D2031272D30224000000000000284000
  0
ACAD_PROXY_OBJECT
  5
65
102
{ACAD_REACTORS
330
47
102
}
330
47
100
AcDbProxyObject
 90
      499
 91
      503
 93
      257
310
90E312D312F3222203D2031272D30220000000000003E0FC000000000000284000
  0
ACAD_PROXY_OBJECT
  5
66
102
{ACAD_REACTORS
330
47
102
}
330
47
100
AcDbProxyObject
 90
      499
 91
      503
 93
      225
310
90A3322203D2031272D302200000000000002100000000000000284000
  0
ACAD_PROXY_OBJECT
  5
67
102
{ACAD_REACTORS
330
47
102
}
330
47
100
AcDbProxyObject
 90
      499
 91
      503
 93
      225
310
90A3622203D2031272D302200000000000006100000000000000284000
  0
ACAD_PROXY_OBJECT
  5
68
102
{ACAD_REACTORS
330
47
102
}
330
47
100
AcDbProxyObject
 90
      499
 91
      503
 93
      249
310
90D31272D3022203D2031272D30220000000000000A100000000000000284000
  0
ACAD_PROXY_OBJECT
  5
2F
102
{ACAD_REACTORS
330
2A
102
}
330
2A
100
AcDbProxyObject
 90
      499
 91
      501
 93
      436
310
42CC9915DA5C99599C985B595049028333333333333E33F0000000000000F90107901411070040501600405405064090741402480A0340
1001
ACAD
1000
AcDbSavedByObjectVersion
1070
     0
  0
ACAD_PROXY_OBJECT
  5
32
102
{ACAD_REACTORS
330
2A
102
}
330
2A
100
AcDbProxyObject
 90
      499
 91
      501
 93
      388
310
4150985CDA58D07406404333333333333E33F0000000000000F90107A41107004050150841D405064090741402480A0350
1001
ACAD
1000
AcDbSavedByObjectVersion
1070
     0
  0
ACAD_PROXY_OBJECT
  5
36
102
{ACAD_REACTORS
330
2A
102
}
330
2A
100
AcDbProxyObject
 90
      499
 91
      501
 93
      428
310
42109C9A59DA1D195B90C409028333333333333E33F0000000000000F9010790141107004050150841D405064090741402480A029950
1001
ACAD
1000
AcDbSavedByObjectVersion
1070
     0
  0
ACAD_PROXY_OBJECT
  5
3A
102
{ACAD_REACTORS
330
2A
102
}
330
2A
100
AcDbProxyObject
 90
      499
 91
      501
 93
      452
310
42D0DBDB1BDC90DA185B99D95104090240C333333333333E33F0000000000000F90108901411070040501508421405064090741402480A0350
1001
ACAD
1000
AcDbSavedByObjectVersion
1070
     0
  0
ACAD_PROXY_OBJECT
  5
34
102
{ACAD_REACTORS
330
2A
102
}
330
2A
100
AcDbProxyObject
 90
      499
 91
      501
 93
      500
310
4290DBDB98D95C1D1D585B10940D028333333333333E33F0000000000000F90107902409070040501000000000018199010841D405064090740C02480A0340
1001
ACAD
1000
AcDbSavedByObjectVersion
1070
     0
  0
ACAD_PROXY_OBJECT
  5
35
102
{ACAD_REACTORS
330
2A
102
}
330
2A
100
AcDbProxyObject
 90
      499
 91
      501
 93
      412
310
40D11A5B50B409028333333333333E33F0000000000000F9010790141107004050150841D405064090741402480A02677FFFFFD0
1001
ACAD
1000
AcDbSavedByObjectVersion
1070
     0
  0
ACAD_PROXY_OBJECT
  5
3D
102
{ACAD_REACTORS
330
2A
102
}
330
2A
100
AcDbProxyObject
 90
      499
 91
      501
 93
      452
310
43115919D950DBDB1BDC93D999916409028333333333333E33F0000000000000F9010790141107004050150841D405064090741402480A0350
1001
ACAD
1000
AcDbSavedByObjectVersion
1070
     0
  0
ACAD_PROXY_OBJECT
  5
39
102
{ACAD_REACTORS
330
2A
102
}
330
2A
100
AcDbProxyObject
 90
      499
 91
      501
 93
      444
310
42D19858D95C185D1D195C9B90F409028333333333333E33F0000000000000F9010790141107004050150841D405064090741402480A0350
1001
ACAD
1000
AcDbSavedByObjectVersion
1070
     0
  0
ACAD_PROXY_OBJECT
  5
2B
102
{ACAD_REACTORS
330
2A
102
}
330
2A
100
AcDbProxyObject
 90
      499
 91
      501
 93
      380
310
41119B185D240901404333333333333E33F0000000000000F9010740A907004050150841D405064090741402480A1B50
1001
ACAD
1000
AcDbSavedByObjectVersion
1070
     0
  0
ACAD_PROXY_OBJECT
  5
2C
102
{ACAD_REACTORS
330
2A
102
}
330
2A
100
AcDbProxyObject
 90
      499
 91
      501
 93
      468
310
43519B185D15DA5D1A115919D95CD0140901404333333333333E33F0000000000000F90107409019070040501600405405064090741402480A1B50
1001
ACAD
1000
AcDbSavedByObjectVersion
1070
     0
  0
ACAD_PROXY_OBJECT
  5
2D
102
{ACAD_REACTORS
330
2A
102
}
330
2A
100
AcDbProxyObject
 90
      499
 91
      501
 93
      404
310
41D1DBDD5C985D5910240902404333333333333E33F0000000000000F9010740A9070040501641D405064090741402480A1B50
1001
ACAD
1000
AcDbSavedByObjectVersion
1070
     0
  0
ACAD_PROXY_OBJECT
  5
2E
102
{ACAD_REACTORS
330
2A
102
}
330
2A
100
AcDbProxyObject
 90
      499
 91
      501
 93
      492
310
4411DBDD5C985D5915DA5D1A115919D95CD0340902404333333333333E33F0000000000000F90107409019070040501600405405064090741402480A1B50
1001
ACAD
1000
AcDbSavedByObjectVersion
1070
     0
  0
ACAD_PROXY_OBJECT
  5
31
102
{ACAD_REACTORS
330
2A
102
}
330
2A
100
AcDbProxyObject
 90
      499
 91
      501
 93
      476
310
41921A5919195B90640502408333333333333E33F0000000000000F901079024090700405020000000000001110200405405064090740C02480A0340
1001
ACAD
1000
AcDbSavedByObjectVersion
1070
     0
  0
ACAD_PROXY_OBJECT
  5
3B
102
{ACAD_REACTORS
330
2A
102
}
330
2A
100
AcDbProxyObject
 90
      499
 91
      501
 93
      428
310
42529A5D1D195C93D999914409028333333333333E33F0000000000000F9010790141107004050150A41D405064090741402480A0350
1001
ACAD
1000
AcDbSavedByObjectVersion
1070
     0
  0
ACAD_PROXY_OBJECT
  5
38
102
{ACAD_REACTORS
330
2A
102
}
330
2A
100
AcDbProxyObject
 90
      499
 91
      501
 93
      444
310
42D31A5B995C185D1D195C9B90E409028333333333333E33F0000000000000F9010790141107004050750841D405064090741402483A0350
1001
ACAD
1000
AcDbSavedByObjectVersion
1070
     0
  0
ACAD_PROXY_OBJECT
  5
3C
102
{ACAD_REACTORS
330
2A
102
}
330
2A
100
AcDbProxyObject
 90
      499
 91
      501
 93
      444
310
42D3DD995C9A185B99D3D999915409028333333333333E33F0000000000000F9010790141107004050150941D405064090741402480A0350
1001
ACAD
1000
AcDbSavedByObjectVersion
1070
     0
  0
ACAD_PROXY_OBJECT
  5
33
102
{ACAD_REACTORS
330
2A
102
}
330
2A
100
AcDbProxyObject
 90
      499
 91
      501
 93
      428
310
425499585B1A5CDD1A58D08409038333333333333E33F0000000000000F9010740A907004050150800405405064090740C02480A1B40
1001
ACAD
1000
AcDbSavedByObjectVersion
1070
     0
  0
ACAD_PROXY_OBJECT
  5
42
102
{ACAD_REACTORS
330
2A
102
}
330
2A
100
AcDbProxyObject
 90
      499
 91
      501
 93
      420
310
4194DA1859195911B40902404333333333333E33F0000000000000F9010740A41107004050150800405405064090840C02480A0B40
1001
ACAD
1000
AcDbSavedByObjectVersion
1070
     0
  0
ACAD_PROXY_OBJECT
  5
41
102
{ACAD_REACTORS
330
2A
102
}
330
2A
100
AcDbProxyObject
 90
      499
 91
      501
 93
      516
310
4454DA18591959081DDA5D1A08195919D95CD1A40902404333333333333E33F0000000000000F901074090142907004050250800405405064090740C02480A0B40
1001
ACAD
1000
AcDbSavedByObjectVersion
1070
     0
  0
ACAD_PROXY_OBJECT
  5
3E
102
{ACAD_REACTORS
330
2A
102
}
330
2A
100
AcDbProxyObject
 90
      499
 91
      501
 93
      532
310
4394DA1859195CC81BD98811DC985E5174090240C333333333333E33F0000000000000F901079024090741D01000000000000111010841D405064090740C02480A0340
1001
ACAD
1000
AcDbSavedByObjectVersion
1070
     0
  0
ACAD_PROXY_OBJECT
  5
3F
102
{ACAD_REACTORS
330
2A
102
}
330
2A
100
AcDbProxyObject
 90
      499
 91
      501
 93
      476
310
41D4DAD95D18DA1E51840502408333333333333E33F0000000000000F901079024090741D01000000000000111010B41D405064090741802480A0340
1001
ACAD
1000
AcDbSavedByObjectVersion
1070
     0
  0
ACAD_PROXY_OBJECT
  5
37
102
{ACAD_REACTORS
330
2A
102
}
330
2A
100
AcDbProxyObject
 90
      499
 91
      501
 93
      412
310
41D51A1A58DAD95B90D409028333333333333E33F0000000000000F9010790141107004050150C41D405064090741402480A0350
1001
ACAD
1000
AcDbSavedByObjectVersion
1070
     0
  0
ACAD_PROXY_OBJECT
  5
30
102
{ACAD_REACTORS
330
2A
102
}
330
2A
100
AcDbProxyObject
 90
      499
 91
      501
 93
      420
310
4255DA5C99599C985B595059028333333333333E33F0000000000000F90107901411070040501600405405064090740C02480A0340
1001
ACAD
1000
AcDbSavedByObjectVersion
1070
     0
  0
ACAD_PROXY_OBJECT
  5
40
102
{ACAD_REACTORS
330
2A
102
}
330
2A
100
AcDbProxyObject
 90
      499
 91
      501
 93
      404
310
41560B54985E51940902404000000000000E03F0000000000000F9010740501907004050150841D405064090740C02480A1B40
1001
ACAD
1000
AcDbSavedByObjectVersion
1070
     0
  0
XRECORD
  5
21A
102
{ACAD_REACTORS
330
210
102
}
330
210
100
AcDbXrecord
340
0
  0
XRECORD
  5
219
102
{ACAD_REACTORS
330
210
102
}
330
210
100
AcDbXrecord
 90
        0
  0
XRECORD
  5
230
102
{ACAD_REACTORS
330
210
102
}
330
210
100
AcDbXrecord
1000
DSTYLE
1002
{
1070
   179
 70
     3
1070
   171
 70
     2
1070
   143
 40
0.0393700787401575
1070
    41
 40
0.5000268816947937
1070
    79
 70
     2
1070
   141
 40
0.0
1070
   271
 70
     3
1070
    43
 40
10.0
1070
   278
 70
    46
1070
    44
 40
1.0
1070
    42
 40
1.0
1070
   147
 40
0.09
1070
   272
 70
     3
1070
   146
 40
0.65
1070
   172
 70
     0
1070
   340
340
11
1070
   140
 40
0.875
1070
   284
 70
     0
1070
    90
 70
     1
1002
}
  0
XRECORD
  5
21B
102
{ACAD_REACTORS
330
210
102
}
330
210
100
AcDbXrecord
  1
{ebbbb143-a1cb-4e1d-b6a3-7eb5320171b9}
  0
XRECORD
  5
213
102
{ACAD_REACTORS
330
210
102
}
330
210
100
AcDbXrecord
  1

  0
XRECORD
  5
218
102
{ACAD_REACTORS
330
210
102
}
330
210
100
AcDbXrecord
 90
        4
  0
XRECORD
  5
215
102
{ACAD_REACTORS
330
210
102
}
330
210
100
AcDbXrecord
340
1A
  0
XRECORD
  5
217
102
{ACAD_REACTORS
330
210
102
}
330
210
100
AcDbXrecord
 90
    10781
  0
XRECORD
  5
216
102
{ACAD_REACTORS
330
210
102
}
330
210
100
AcDbXrecord
340
19
  0
XRECORD
  5
21D
102
{ACAD_REACTORS
330
210
102
}
330
210
100
AcDbXrecord
 40
0.0
  0
XRECORD
  5
220
102
{ACAD_REACTORS
330
210
102
}
330
210
100
AcDbXrecord
340
0
  0
XRECORD
  5
226
102
{ACAD_REACTORS
330
210
102
}
330
210
100
AcDbXrecord
 10
0.0
 20
0.0
 30
0.0
  0
XRECORD
  5
222
102
{ACAD_REACTORS
330
210
102
}
330
210
100
AcDbXrecord
 10
0.0
 20
0.0
 30
0.0
  0
XRECORD
  5
225
102
{ACAD_REACTORS
330
210
102
}
330
210
100
AcDbXrecord
 10
0.0
 20
0.0
 30
0.0
  0
XRECORD
  5
223
102
{ACAD_REACTORS
330
210
102
}
330
210
100
AcDbXrecord
 10
0.0
 20
0.0
 30
0.0
  0
XRECORD
  5
224
102
{ACAD_REACTORS
330
210
102
}
330
210
100
AcDbXrecord
 10
0.0
 20
0.0
 30
0.0
  0
XRECORD
  5
221
102
{ACAD_REACTORS
330
210
102
}
330
210
100
AcDbXrecord
 10
0.0
 20
0.0
 30
0.0
  0
XRECORD
  5
21E
102
{ACAD_REACTORS
330
210
102
}
330
210
100
AcDbXrecord
340
0
  0
XRECORD
  5
21F
102
{ACAD_REACTORS
330
210
102
}
330
210
100
AcDbXrecord
 70
     0
  0
XRECORD
  5
214
102
{ACAD_REACTORS
330
210
102
}
330
210
100
AcDbXrecord
  1

  0
XRECORD
  5
211
102
{ACAD_REACTORS
330
210
102
}
330
210
100
AcDbXrecord
 90
        1
  0
XRECORD
  5
212
102
{ACAD_REACTORS
330
210
102
}
330
210
100
AcDbXrecord
 90
       70
  0
XRECORD
  5
229
102
{ACAD_REACTORS
330
210
102
}
330
210
100
AcDbXrecord
340
0
  0
XRECORD
  5
22F
102
{ACAD_REACTORS
330
210
102
}
330
210
100
AcDbXrecord
 10
0.0
 20
0.0
 30
0.0
  0
XRECORD
  5
22B
102
{ACAD_REACTORS
330
210
102
}
330
210
100
AcDbXrecord
 10
0.0
 20
0.0
 30
0.0
  0
XRECORD
  5
22E
102
{ACAD_REACTORS
330
210
102
}
330
210
100
AcDbXrecord
 10
0.0
 20
0.0
 30
0.0
  0
XRECORD
  5
22C
102
{ACAD_REACTORS
330
210
102
}
330
210
100
AcDbXrecord
 10
0.0
 20
0.0
 30
0.0
  0
XRECORD
  5
22D
102
{ACAD_REACTORS
330
210
102
}
330
210
100
AcDbXrecord
 10
0.0
 20
0.0
 30
0.0
  0
XRECORD
  5
22A
102
{ACAD_REACTORS
330
210
102
}
330
210
100
AcDbXrecord
 10
0.0
 20
0.0
 30
0.0
  0
XRECORD
  5
227
102
{ACAD_REACTORS
330
210
102
}
330
210
100
AcDbXrecord
340
0
  0
XRECORD
  5
228
102
{ACAD_REACTORS
330
210
102
}
330
210
100
AcDbXrecord
 70
     0
  0
XRECORD
  5
21C
102
{ACAD_REACTORS
330
210
102
}
330
210
100
AcDbXrecord
  1
{FAEB1C32-E019-11D5-929B-00C0DF256EC4}
  0
DICTIONARYVAR
  5
23A
102
{ACAD_REACTORS
330
231
102
}
330
231
100
DictionaryVariables
280
     0
  1
1:1
  0
DICTIONARYVAR
  5
233
102
{ACAD_REACTORS
330
231
102
}
330
231
100
DictionaryVariables
280
     0
  1
Standard
  0
DICTIONARYVAR
  5
232
102
{ACAD_REACTORS
330
231
102
}
330
231
100
DictionaryVariables
280
     0
  1
Standard
  0
DICTIONARYVAR
  5
236
102
{ACAD_REACTORS
330
231
102
}
330
231
100
DictionaryVariables
280
     0
  1
2
  0
DICTIONARYVAR
  5
237
102
{ACAD_REACTORS
330
231
102
}
330
231
100
DictionaryVariables
280
     0
  1
1
  0
DICTIONARYVAR
  5
23B
102
{ACAD_REACTORS
330
231
102
}
330
231
100
DictionaryVariables
280
     0
  1
1
  0
DICTIONARY
  5
23E
330
45
100
AcDbDictionary
280
     1
  3
ACAD_XREC_ROUNDTRIP
360
23F
  0
DICTIONARY
  5
23C
330
44
100
AcDbDictionary
280
     1
  3
ACAD_XREC_ROUNDTRIP
360
23D
  0
DICTIONARY
  5
240
330
46
100
AcDbDictionary
280
     1
  3
ACAD_XREC_ROUNDTRIP
360
241
  0
XRECORD
  5
23F
102
{ACAD_REACTORS
330
23E
102
}
330
23E
100
AcDbXrecord
102
MATERIAL
148
0.0
149
0.0
149
0.0
 93
        0
 94
      127
282
     0
 72
     1
 77
     1
171
     1
175
     1
179
     1
273
     0
  0
XRECORD
  5
23D
102
{ACAD_REACTORS
330
23C
102
}
330
23C
100
AcDbXrecord
102
MATERIAL
148
0.0
149
0.0
149
0.0
 93
        0
 94
      127
282
     0
 72
     1
 77
     1
171
     1
175
     1
179
     1
273
     0
  0
XRECORD
  5
241
102
{ACAD_REACTORS
330
240
102
}
330
240
100
AcDbXrecord
102
MATERIAL
148
0.0
149
0.0
149
0.0
 93
        0
 94
      127
282
     0
 72
     1
 77
     1
171
     1
175
     1
179
     1
273
     0
  0
ENDSEC
  0
EOF
